Login / Register
720p

The.Other.Woman.2014.720p.BluRay.x264.DTS-RARBG

Category: Video
Type: Movies
Language: English
Subtitles: English
Movie Title: The Other Woman
Detected quality: 720p
Release date: 2014-04-24
Cast: Kate Upton,Cameron Diaz,Leslie Mann,Nikolaj Coster-Waldau,Taylor Kinney,Nicki Minaj,Don Johnson,Jeanmarie Lally,Uzimann,Nina Barry,Alyshia Ochse,Ashley Cusato,Madison McKinley,Victor Cruz,David Thornton,Tony Joe,Craig Castaldo,Alan Davis,Colin Bannon
Genre: Comedy, Romance
External Links: IMDB
Director: Nick Cassavetes
Producers: Maguy R. Cohen,Julie Yorn,Donald J. Lee Jr.,Chuck Pacheco,Patrick Walmsley
Writer: Melissa Stack
Duration: 109
IMDB rating: 6.0 (69,121 votes)
Summary: After discovering her boyfriend is married, Carly soon meets the wife he's been betraying. And when yet another love affair is discovered, all three women team up to plot revenge on the three-timing S.O.B.
Votes
Good: 1
Bad: 0
GoodBad
0
Seeders
2
Leechers

Added: 2014-07-15

Size: 6.19 GB

Health: 25%

Hash (Base16): 949CB3CB02C7FB5C1D1336E8E6B6C74BCA168AC7

Hash (Base32): SSOLHSYCY75VYHITG3UONNWHJPFBNCWH

DownloadBookmark
DOWNLOAD LOCATIONS
http://rarbg.to/torrent/ukeo4jh
http://thepiratebay.se/torrent/10558895/The.Other.Woman.2014.720p.BluRay.x264.DTS-RARBG
http://bitsnoop.com/the-other-woman-2014-720p-bluray-x2-q66083855.html
http://rarbg.to/db.php?j=1&q=949cb3cb02c7fb5c1d1336e8e6b6c74bca168ac7&t=185.27.236.82&c=5
http://isohunt.to/torrent_details/12096900/The-Other-Woman-2014-720p-BluRay-x264-DTS-RARBG
http://torrenthound.to/hash/949cb3cb02c7fb5c1d1336e8e6b6c74bca168ac7/torrent-info/The.Other.Woman.2014.720p.BluRay.x264.DTS-RARBG
http://www.monova.org/torrent/8277346/TheOtherWoman2014720pBluRayx264DTS-RARBG.html
http://www.torrents.net/torrent/5225095/The.Other.Woman.2014.720p.BluRay.x264.DTS-RARBG/
http://www.limetorrents.cc/The-Other-Woman-2014-720p-BluRay-x264-DTS-RARBG-torrent-4801471.html
http://fastpiratebay.eu/thepiratebay.se/torrent/10558895/The.Other.Woman.2014.720p.BluRay.x264.DTS-RARBG
http://www.torrentreactor.net/torrents/25749011/The-Other-Woman-2014-720p-BluRay-x264-DTS-RARBG
http://www.seedpeer.me/details/8238826/The.Other.Woman.2014.720p.BluRay.x264.DTS-RARBG.html
http://www.torrentzap.com/torrent/2421895/The+Other+Woman+2014+720p+BluRay+x264+DTS-RARBG
http://www.torrentfunk.com/torrent/8919117/the-other-woman-2014-720p-bluray-x264-dtsbg.html
http://torrentproject.se/949cb3cb02c7fb5c1d1336e8e6b6c74bca168ac7/
http://www.yourbittorrent.com/torrent/6233485/the.other.woman.2014.720p.bluray.x264.dtsbg.html
http://torcache.net/torrent/949CB3CB02C7FB5C1D1336E8E6B6C74BCA168AC7.torrent?title=The.Other.Woman.2014.720p.BluRay.x264.DTS-RARBG
https://torrage.com/torrent/949CB3CB02C7FB5C1D1336E8E6B6C74BCA168AC7.torrent
^

The.Other.Woman.2014.720p.BluRay.x264.DTS-RARBG

image

Title: The Other Woman (2014)
IMDB Rating: 6.4/10
Genres: Comedy , Romance
Actors: Cameron Diaz , Leslie Mann , Nikolaj Coster-Waldau , Don Johnson , Kate Upton , Taylor Kinney , Nicki Minaj , Kenneth Maharaj , Alyshia Ochse , Victor Cruz , Madison McKinley , David Thornton , Olivia Culpo , John 'B.J.' Bryant , Chelsea Turnbo
Runtime: 109
Year: 2014
Plot:
After discovering her boyfriend is married| Carly Whitten tries to get her ruined life back on track. But when she accidentally meets the wife he's been cheating on|
she realizes they have much in common| and her sworn enemy becomes her greatest friend. When yet another affair is discovered| all three women team up to plot mutual
revenge on their cheating| lying| three-timing SOB.


The.Other.Woman.2014.720p.BluRay.x264.DTS-RARBG

http://imdb.com/title/tt2203939/

Screens:
image
image
image
image
image
image

Info:

[mediainfo]

Video
ID : 1
Format : AVC
Format/Info : Advanced Video Codec
Format profile : [email protected]
Format settings, CABAC : Yes
Format settings, ReFrames : 12 frames
Codec ID : V_MPEG4/ISO/AVC
Duration : 1h 49mn
Bit rate : 6 600 Kbps
Width : 1 280 pixels
Height : 534 pixels
Display aspect ratio : 2.40:1
Frame rate mode : Constant
Frame rate : 23.976 fps
Color space : YUV
Chroma subsampling : 4:2:0
Bit depth : 8 bits
Scan type : Progressive
Bits/(Pixel*Frame) : 0.403
Stream size : 4.92 GiB (79%)
Title : The.Other.Woman.2014.720p.BluRay.x264.DTS-RARBG
Default : Yes
Forced : No

Audio
ID : 2
Format : DTS
Format/Info : Digital Theater Systems
Mode : 16
Format settings, Endianness : Big
Codec ID : A_DTS
Duration : 1h 49mn
Bit rate mode : Constant
Bit rate : 1 509 Kbps
Channel(s) : 6 channels
Channel positions : Front: L C R, Side: L R, LFE
Sampling rate : 48.0 KHz
Bit depth : 24 bits
Compression mode : Lossy
Stream size : 1.15 GiB (19%)
Title : The.Other.Woman.2014.720p.BluRay.x264.DTS-RARBG
Language : English
Default : Yes
Forced : No

Text
ID : 3
Format : PGS
Muxing mode : zlib
Codec ID : S_HDMV/PGS
Codec ID/Info : The same subtitle format used on BDs/HD-DVDs
Language : English
Default : Yes
Forced : No


[/mediainfo]

Notes:
Greetz to everyone :)

TRACKERSEEDLEECHDOWNLOADED
udp://tracker.coppersurfer.tk:6969/announce010
http://mgtracker.org:2710/announce0024
udp://mgtracker.org:2710/announce0024
udp://9.rarbg.me:2710/announce
udp://11.rarbg.me:80/announce
udp://10.rarbg.me:80/announce
udp://12.rarbg.me:80/announce
udp://9.rarbg.com:2710/announce
udp://open.demonii.com:1337/announce
udp://tracker.publicbt.com:80/announce
udp://tracker.istole.it:80/announce
udp://tracker.openbittorrent.com:80/announce
udp://tracker.istole.it:6969/announce
http://tracker1.wasabii.com.tw:6969/announce
http://tracker.nwps.ws:6969/announce
http://bt.careland.com.cn:6969/announce
http://bttracker.crunchbanglinux.org:6969/announce
http://tracker.best-torrents.net:6969/announce
http://tracker.trackerfix.com/announce
http://9.rarbg.com:2710/announce
udp://tracker.ccc.de:80/announce
udp://tracker.leechers-paradise.org:6969/announce
http://tracker.thepiratebay.org/announce
http://shadowshq.yi.org:6969/announce
http://www.eddie4.nl:6969/announce
http://retracker.telecom.kz/announce
udp://tracker-ccc.de:6969/announce
FILESIZE
The.Other.Woman.2014.720p.BluRay.x264.DTS-RARBG.mkv6.19 GB
RARBG.com.mp4992.93 KB
The.Other.Woman.2014.720p.BluRay.x264.DTS-RARBG.nfo3.12 KB
RARBG.com.txt31 B

Related results

Date Title Size Files Seeds Leechs Category Health
Video(Movies) 1.29 GB 5 2014-07-14 1 0 25%
Video(Movies) 13.5 GB 4 2014-07-15 0 2 25%
Video(Movies) 2.08 GB 5 2014-07-16 0 1 25%
Video(Movies) 15.1 GB 4 2014-07-16 0 1 25%
Video(Movies) 26 GB 4 2014-07-16 0 1 25%

Login

Account deleting

Are you sure you want to delete your account?

WARNING: This action cannot be undone!!!