Login / Register
720p

The.Other.Woman.2014.720p.WEB-DL.DD5.1.H264-RARBG

Category: Video
Type: Movies
Language: English
Subtitles: English
Movie Title: The Other Woman
Detected quality: 720p
Release date: 2014-04-24
Cast: Kate Upton,Cameron Diaz,Leslie Mann,Nikolaj Coster-Waldau,Taylor Kinney,Nicki Minaj,Don Johnson,Jeanmarie Lally,Uzimann,Nina Barry,Alyshia Ochse,Ashley Cusato,Madison McKinley,Victor Cruz,David Thornton,Tony Joe,Craig Castaldo,Alan Davis,Colin Bannon
Genre: Comedy, Romance
External Links: IMDB
Director: Nick Cassavetes
Producers: Maguy R. Cohen,Julie Yorn,Donald J. Lee Jr.,Chuck Pacheco,Patrick Walmsley
Writer: Melissa Stack
Duration: 109
IMDB rating: 6.0 (69,121 votes)
Summary: After discovering her boyfriend is married, Carly soon meets the wife he's been betraying. And when yet another love affair is discovered, all three women team up to plot revenge on the three-timing S.O.B.
Votes
Good: 0
Bad: 0
GoodBad
0
Seeders
1
Leechers

Added: 2014-07-15

Size: 3.29 GB

Health: 25%

Hash (Base16): 320F9249C046334FBF18ED13E438E659FEDCD451

Hash (Base32): GIHZESOAIYZU7PYY5UJ6IOHGLH7NZVCR

DownloadBookmark
^

The.Other.Woman.2014.720p.WEB-DL.DD5.1.H264-RARBG

image

Title: The Other Woman (2014)
IMDB Rating: 6.4/10
Genres: Comedy , Romance
Actors: Cameron Diaz , Leslie Mann , Nikolaj Coster-Waldau , Don Johnson , Kate Upton , Taylor Kinney , Nicki Minaj , Kenneth Maharaj , Alyshia Ochse , Victor Cruz , Madison McKinley , David Thornton , Olivia Culpo , John 'B.J.' Bryant , Chelsea Turnbo
Runtime: 109
Year: 2014
Plot:
After discovering her boyfriend is married| Carly Whitten tries to get her ruined life back on track. But when she accidentally meets the wife he's been cheating on|
she realizes they have much in common| and her sworn enemy becomes her greatest friend. When yet another affair is discovered| all three women team up to plot mutual
revenge on their cheating| lying| three-timing SOB.


The.Other.Woman.2014.720p.WEB-DL.DD5.1.H264-RARBG

http://imdb.com/title/tt2203939/

Screens:
image
image
image
image
image
image
image
image

Info:

[mediainfo]

Video
ID : 1
Format : AVC
Format/Info : Advanced Video Codec
Format profile : Main@L3.1
Format settings, CABAC : No
Format settings, ReFrames : 2 frames
Codec ID : V_MPEG4/ISO/AVC
Duration : 1h 49mn
Bit rate : 3 838 Kbps
Width : 1 280 pixels
Height : 532 pixels
Display aspect ratio : 2.40:1
Frame rate mode : Constant
Frame rate : 23.976 fps
Color space : YUV
Chroma subsampling : 4:2:0
Bit depth : 8 bits
Scan type : Progressive
Bits/(Pixel*Frame) : 0.235
Stream size : 2.93 GiB (89%)
Title : The.Other.Woman.2014.720p.WEB-DL.DD5.1.H264-RARBG
Default : Yes
Forced : No
Color primaries : BT.709
Transfer characteristics : BT.709
Matrix coefficients : BT.709

Audio
ID : 2
Format : AC-3
Format/Info : Audio Coding 3
Mode extension : CM (complete main)
Format settings, Endianness : Big
Codec ID : A_AC3
Duration : 1h 49mn
Bit rate mode : Constant
Bit rate : 384 Kbps
Channel(s) : 6 channels
Channel positions : Front: L C R, Side: L R, LFE
Sampling rate : 48.0 KHz
Bit depth : 16 bits
Compression mode : Lossy
Stream size : 301 MiB (9%)
Title : The.Other.Woman.2014.720p.WEB-DL.DD5.1.H264-RARBG
Language : English
Default : Yes
Forced : No

Text
ID : 3
Format : UTF-8
Codec ID : S_TEXT/UTF8
Codec ID/Info : UTF-8 Plain Text
Language : English
Default : Yes
Forced : No

Menu
00:00:00.000 : en:Chapter1
00:03:04.000 : en:Chapter2
00:05:42.000 : en:Chapter3
00:07:18.000 : en:Chapter4
00:10:18.000 : en:Chapter5
00:14:14.000 : en:Chapter6
00:16:42.000 : en:Chapter7
00:19:44.000 : en:Chapter8
00:21:15.000 : en:Chapter9
00:23:58.000 : en:Chapter10
00:28:13.000 : en:Chapter11
00:32:30.000 : en:Chapter12
00:35:37.000 : en:Chapter13
00:39:01.000 : en:Chapter14
00:41:50.000 : en:Chapter15
00:44:48.000 : en:Chapter16
00:48:28.000 : en:Chapter17
00:52:28.000 : en:Chapter18
00:55:49.000 : en:Chapter19
00:58:15.000 : en:Chapter20
01:00:15.000 : en:Chapter21
01:03:12.000 : en:Chapter22
01:08:29.000 : en:Chapter23
01:10:57.000 : en:Chapter24
01:14:22.000 : en:Chapter25
01:17:14.000 : en:Chapter26
01:22:06.000 : en:Chapter27
01:26:34.000 : en:Chapter28
01:29:56.000 : en:Chapter29
01:34:54.000 : en:Chapter30
01:42:17.000 : en:Chapter31
01:44:19.000 : en:Chapter32


[/mediainfo]

Notes:
Greetz to everyone :)

TRACKERSEEDLEECHDOWNLOADED
udp://9.rarbg.me:2710/announce
udp://11.rarbg.me:80/announce
udp://10.rarbg.me:80/announce
udp://12.rarbg.me:80/announce
udp://9.rarbg.com:2710/announce
udp://open.demonii.com:1337/announce
udp://tracker.publicbt.com:80/announce
udp://tracker.istole.it:80/announce
udp://tracker.openbittorrent.com:80/announce
udp://tracker.istole.it:6969/announce
http://tracker.istole.it/announce
http://tracker.trackerfix.com/announce
http://9.rarbg.com:2710/announce
udp://tracker.ccc.de:80/announce
http://tracker.thepiratebay.org/announce
udp://tracker-ccc.de:6969/announce
FILESIZE
The.Other.Woman.2014.720p.WEB-DL.DD5.1.H264-RARBG.mkv3.29 GB
RARBG.com.mp4992.93 KB
The.Other.Woman.2014.720p.WEB-DL.DD5.1.H264-RARBG.srt215.56 KB
The.Other.Woman.2014.720p.WEB-DL.DD5.1.H264-RARBG.nfo4.99 KB
RARBG.com.txt31 B

Related results

Date Title Size Files Seeds Leechs Category Health
Video(Movies) 6.19 GB 4 2014-07-14 1 0 25%
Video(Movies) 1.29 GB 5 2014-07-14 0 1 25%
Video(Movies) 1.37 GB 5 2014-07-14 1 0 25%
Video(Movies) 1.57 GB 5 2014-07-14 1 0 25%
Video(Movies) 3.39 GB 5 2014-07-14 0 1 25%
Video(Movies) 956.44 MB 5 2014-07-14 0 1 25%
Video(Movies) 1.73 GB 4 2014-07-03 1 0 25%
Video(Movies) 1.52 GB 4 2014-06-20 1 1 25%

Login

Account deleting

Are you sure you want to delete your account?

WARNING: This action cannot be undone!!!