Login / Register

GFRevenge.Tub.Love.Marina.mp4

Category: XXX
Type: Other
Votes
Good: 0
Bad: 0
GoodBad
1
Seeders
1
Leechers

Added: 2014-07-11

Size: 371.02 MB

Health: 25%

Hash (Base16): AB7DD6EE91D3A8F6A111D5C07D9418F81984E28B

Hash (Base32): VN65N3UR2OUPNIIR2XAH3FAY7AMYJYUL

DownloadBookmark
^

[mediainfo]
Video
ID                                       : 1
Format                                   : AVC
Format/Info                              : Advanced Video Codec
Format profile                           : [email protected]
Format settings, CABAC                   : No
Format settings, ReFrames                : 6 frames
Codec ID                                 : avc1
Codec ID/Info                            : Advanced Video Coding
Duration                                 : 33mn 36s
Bit rate mode                            : Variable
Bit rate                                 : 1 500 Kbps
Width                                    : 768 pixels
Height                                   : 432 pixels
Display aspect ratio                     : 16:9
Frame rate mode                          : Variable
Frame rate                               : 30.000 fps
Minimum frame rate                       : 29.412 fps
Maximum frame rate                       : 30.303 fps
Standard                                 : Component
Color space                              : YUV
Chroma subsampling                       : 4:2:0
Bit depth                                : 8 bits
Scan type                                : Progressive
Bits/(Pixel*Frame)                       : 0.151
Stream size                              : 361 MiB (97%)

Audio
ID                                       : 2
Format                                   : AAC
Format/Info                              : Advanced Audio Codec
Format profile                           : LC
Codec ID                                 : 40
Duration                                 : 33mn 36s
Bit rate mode                            : Constant
Bit rate                                 : 32.0 Kbps
Channel(s)                               : 1 channel
Channel positions                        : Front: C
Sampling rate                            : 32.0 KHz
Compression mode                         : Lossy
Stream size                              : 7.69 MiB (2%)


[/mediainfo]

TRACKERSEEDLEECHDOWNLOADED
udp://9.rarbg.me:2710/announce
udp://11.rarbg.me:80/announce
udp://10.rarbg.me:80/announce
udp://12.rarbg.me:80/announce
udp://9.rarbg.com:2710/announce
udp://tracker.publicbt.com:80/announce
udp://tracker.openbittorrent.com:80/announce
http://tracker.istole.it/announce
http://tracker.trackerfix.com/announce
http://tracker.kuaikuai.cn:8080/announce
FILESIZE
GFRevenge.Tub.Love.Marina.mp4370.88 MB
RARBG.com.txt31 B
poster.jpg22.83 KB
screens.jpg114.43 KB

Login

Account deleting

Are you sure you want to delete your account?

WARNING: This action cannot be undone!!!