Login / Register

The.Strain.S01E01.720p.HDTV.X264-DIMENSION[rartv]

Category: Video
Type: TV
Movie Title: The Strain
Season: 1
Episode: 1
Cast: David Bradley,Anne Betancourt,Nikolai Witschl,Pedro Miguel Arce,Drew Nelson,Alex Paxton-Beesley,Jonathan Potts,Lindsay Owen Pierre,Sean Astin,Natalie Brown,Kevin Durand,Miguel Gomez,Jonathan Hyde,Ben Hyland,Matthew Gonzales,Egidio Tari,Robert Maillet
Genre: Drama, Horror, Sci-Fi
External Links: IMDB
Directors: Peter Weller,John Dahl,Phil Abraham,J. Miles Dale,J. Miles Dale,Kevin Dowling,Guy Ferland,Deran Sarafian,David Semel,Gregory Hoblit,Keith Gordon,T.J. Scott,Guillermo del Toro,Charlotte Sieling
Producers: Richard J. Anobile,Richard J. Anobile,Carlton Cuse,J. Miles Dale,J. Miles Dale,Gennifer Hutchison,Andrew Zolot,Guillermo del Toro,Bradley Thompson,David Weddle,Ra'uf Glasgow,Gary Ungar,Regina Corrado,Cory Bird,Chuck Hogan
Writers: Carlton Cuse,Gennifer Hutchison,Guillermo del Toro,Bradley Thompson,David Weddle,Greggory Nations,Regina Corrado,Chuck Hogan
Duration: 60
Original run: 2008-05-25
Summary: A thriller that tells the story of Dr. Ephraim Goodweather, the head of the Center for Disease Control Canary Team in New York City. He and his team are called upon to investigate a mysterious viral outbreak with hallmarks of an ancient and evil strain of vampirism. As the strain spreads, Eph, his team, and an assembly of everyday New Yorkers, wage war for the fate of humanity itself.
Votes
Good: 0
Bad: 0
GoodBad
0
Seeders
3
Leechers

Added: 2014-07-14

Size: 1.61 GB

Health: 25%

Hash (Base16): B911D6D8010F368DB4C72464A1A9C01108FBF913

Hash (Base32): XEI5NWABB43I3NGHERSKDKOACEEPX6IT

DownloadBookmark
^

The.Strain.S01E01.720p.HDTV.X264-DIMENSION[rartv]

image
[mediainfo]

Video
ID : 1
Format : AVC
Format/Info : Advanced Video Codec
Format profile : [email protected]
Format settings, CABAC : Yes
Format settings, ReFrames : 5 frames
Codec ID : V_MPEG4/ISO/AVC
Duration : 1h 9mn
Bit rate : 2 853 Kbps
Width : 1 280 pixels
Height : 720 pixels
Display aspect ratio : 16:9
Frame rate mode : Constant
Frame rate : 23.976 fps
Color space : YUV
Chroma subsampling : 4:2:0
Bit depth : 8 bits
Scan type : Progressive
Bits/(Pixel*Frame) : 0.129
Stream size : 1.39 GiB (86%)
Writing library : x264 core 142 r2431 ac76440
Encoding settings : cabac=1 / ref=5 / deblock=1:-1:-1 / analyse=0x3:0x113 / me=umh / subme=8 / psy=1 / psy_rd=1.00:0.00 / mixed_ref=1 / me_range=16 / chroma_me=1 / trellis=1 / 8x8dct=1 / cqm=0 / deadzone=21,11 / fast_pskip=1 / chroma_qp_offset=-2 / threads=18 / lookahead_threads=4 / sliced_threads=0 / nr=0 / decimate=1 / interlaced=0 / bluray_compat=0 / constrained_intra=0 / bframes=5 / b_pyramid=2 / b_adapt=2 / b_bias=0 / direct=3 / weightb=1 / open_gop=0 / weightp=2 / keyint=250 / keyint_min=23 / scenecut=40 / intra_refresh=0 / rc_lookahead=50 / rc=crf / mbtree=1 / crf=18.0 / qcomp=0.60 / qpmin=0 / qpmax=69 / qpstep=4 / ip_ratio=1.40 / aq=1:1.00
Default : No
Forced : No

Audio
ID : 2
Format : AC-3
Format/Info : Audio Coding 3
Mode extension : CM (complete main)
Format settings, Endianness : Big
Codec ID : A_AC3
Duration : 1h 9mn
Bit rate mode : Constant
Bit rate : 384 Kbps
Channel(s) : 6 channels
Channel positions : Front: L C R, Side: L R, LFE
Sampling rate : 48.0 KHz
Bit depth : 16 bits
Compression mode : Lossy
Delay relative to video : -83ms
Stream size : 192 MiB (12%)
Default : Yes
Forced : No

[/mediainfo]

TRACKERSEEDLEECHDOWNLOADED
udp://9.rarbg.me:2710/announce
udp://11.rarbg.me:80/announce
udp://10.rarbg.me:80/announce
udp://12.rarbg.me:80/announce
udp://9.rarbg.com:2710/announce
udp://open.demonii.com:1337/announce
udp://tracker.publicbt.com:80/announce
udp://tracker.istole.it:80/announce
udp://tracker.openbittorrent.com:80/announce
udp://tracker.istole.it:6969/announce
http://tracker.istole.it/announce
http://tracker.trackerfix.com/announce
udp://tracker.ccc.de:80/announce
http://tracker.thepiratebay.org/announce
udp://tracker-ccc.de:6969/announce
FILESIZE
RARBG.com.txt31 B
The.Strain.S01E01.720p.HDTV.X264-DIMENSION.mkv1.61 GB
the.strain.101.720p-dimension.nfo482 B

Related results

Date Title Size Files Seeds Leechs Category Health
Video(TV) 1.27 GB 3 2014-08-31 0 2 25%

Login

Account deleting

Are you sure you want to delete your account?

WARNING: This action cannot be undone!!!