Login / Register

The.Strain.S01E01.HDTV.x264-2HD[rartv]

Category: Video
Type: TV
Movie Title: The Strain
Season: 1
Episode: 1
Cast: David Bradley,Anne Betancourt,Nikolai Witschl,Pedro Miguel Arce,Drew Nelson,Alex Paxton-Beesley,Jonathan Potts,Lindsay Owen Pierre,Sean Astin,Natalie Brown,Kevin Durand,Miguel Gomez,Jonathan Hyde,Ben Hyland,Matthew Gonzales,Egidio Tari,Robert Maillet
Genre: Drama, Horror, Sci-Fi
External Links: IMDB
Directors: Peter Weller,John Dahl,Phil Abraham,J. Miles Dale,J. Miles Dale,Kevin Dowling,Guy Ferland,Deran Sarafian,David Semel,Gregory Hoblit,Keith Gordon,T.J. Scott,Guillermo del Toro,Charlotte Sieling
Producers: Richard J. Anobile,Richard J. Anobile,Carlton Cuse,J. Miles Dale,J. Miles Dale,Gennifer Hutchison,Andrew Zolot,Guillermo del Toro,Bradley Thompson,David Weddle,Ra'uf Glasgow,Gary Ungar,Regina Corrado,Cory Bird,Chuck Hogan
Writers: Carlton Cuse,Gennifer Hutchison,Guillermo del Toro,Bradley Thompson,David Weddle,Greggory Nations,Regina Corrado,Chuck Hogan
Duration: 60
Original run: 2008-05-25
Summary: A thriller that tells the story of Dr. Ephraim Goodweather, the head of the Center for Disease Control Canary Team in New York City. He and his team are called upon to investigate a mysterious viral outbreak with hallmarks of an ancient and evil strain of vampirism. As the strain spreads, Eph, his team, and an assembly of everyday New Yorkers, wage war for the fate of humanity itself.
Votes
Good: 0
Bad: 0
GoodBad
1
Seeders
0
Leechers

Added: 2014-07-14

Size: 555.8 MB

Health: 25%

Hash (Base16): 18734F5D860E51BB931C01972A96CB84260E64B3

Hash (Base32): DBZU6XMGBZI3XEY4AGLSVFWLQQTA4ZFT

DownloadBookmark
^

The.Strain.S01E01.HDTV.x264-2HD[rartv]

image
[mediainfo]

Video
ID : 1
Format : AVC
Format/Info : Advanced Video Codec
Format profile : High@L3.1
Format settings, CABAC : Yes
Format settings, ReFrames : 5 frames
Codec ID : avc1
Codec ID/Info : Advanced Video Coding
Duration : 1h 9mn
Source duration : 1h 9mn
Bit rate : 985 Kbps
Maximum bit rate : 3 520 Kbps
Width : 720 pixels
Height : 404 pixels
Display aspect ratio : 16:9
Frame rate mode : Constant
Frame rate : 23.976 fps
Color space : YUV
Chroma subsampling : 4:2:0
Bit depth : 8 bits
Scan type : Progressive
Bits/(Pixel*Frame) : 0.141
Stream size : 491 MiB (88%)
Source stream size : 491 MiB (88%)
Writing library : x264 core 142 r2431 ac76440
Encoding settings : cabac=1 / ref=5 / deblock=1:0:0 / analyse=0x3:0x113 / me=umh / subme=8 / psy=1 / psy_rd=1.00:0.00 / mixed_ref=1 / me_range=16 / chroma_me=1 / trellis=1 / 8x8dct=1 / cqm=0 / deadzone=21,11 / fast_pskip=1 / chroma_qp_offset=-2 / threads=12 / lookahead_threads=2 / sliced_threads=0 / nr=0 / decimate=1 / interlaced=0 / bluray_compat=0 / constrained_intra=0 / bframes=3 / b_pyramid=2 / b_adapt=2 / b_bias=0 / direct=3 / weightb=1 / open_gop=0 / weightp=2 / keyint=250 / keyint_min=23 / scenecut=40 / intra_refresh=0 / rc_lookahead=50 / rc=crf / mbtree=1 / crf=19.0 / qcomp=0.60 / qpmin=0 / qpmax=69 / qpstep=4 / ip_ratio=1.40 / aq=1:1.00
Encoded date : UTC 2014-07-14 02:48:16
Tagged date : UTC 2014-07-14 03:28:43
Matrix coefficients : BT.709

Audio
ID : 2
Format : AAC
Format/Info : Advanced Audio Codec
Format profile : LC
Codec ID : 40
Duration : 1h 9mn
Bit rate mode : Variable
Bit rate : 125 Kbps
Maximum bit rate : 174 Kbps
Channel(s) : 2 channels
Channel positions : Front: L R
Sampling rate : 48.0 KHz
Compression mode : Lossy
Stream size : 62.5 MiB (11%)
Encoded date : UTC 2014-07-14 03:28:42
Tagged date : UTC 2014-07-14 03:28:43

Other #1
ID : 3
Type : Object description
Format : System
Codec ID : 1
Duration : 1s 0ms
Encoded date : UTC 2014-07-14 03:28:43
Tagged date : UTC 2014-07-14 03:28:43

Other #2
ID : 4
Type : Scene description
Format : System Core
Codec ID : 2
Duration : 1s 0ms
Encoded date : UTC 2014-07-14 03:28:43
Tagged date : UTC 2014-07-14 03:28:43

[/mediainfo]

TRACKERSEEDLEECHDOWNLOADED
udp://9.rarbg.me:2710/announce
udp://11.rarbg.me:80/announce
udp://10.rarbg.me:80/announce
udp://12.rarbg.me:80/announce
udp://9.rarbg.com:2710/announce
udp://open.demonii.com:1337/announce
udp://tracker.publicbt.com:80/announce
udp://tracker.istole.it:80/announce
udp://tracker.openbittorrent.com:80/announce
udp://tracker.istole.it:6969/announce
http://tracker.istole.it/announce
http://tracker.trackerfix.com/announce
http://9.rarbg.com:2710/announce
udp://tracker.ccc.de:80/announce
http://tracker.thepiratebay.org/announce
udp://tracker-ccc.de:6969/announce
FILESIZE
RARBG.com.txt31 B
the.strain.s01e01.hdtv.x264-2hd.mp4555.8 MB
the.strain.s01e01.hdtv.x264-2hd.nfo4.06 KB

Related results

Date Title Size Files Seeds Leechs Category Health
Video(TV) 308.44 MB 3 2014-08-03 0 1 25%
Video(TV) 1.33 GB 3 2014-08-24 0 2 25%
Video(TV) 297 MB 3 2014-08-31 1 0 25%

Login

Account deleting

Are you sure you want to delete your account?

WARNING: This action cannot be undone!!!