Login / Register

The Trials of Cate McCall 2013 DVDRip XviD MP3-RARBG

Category: Video
Type: Movies
Movie Title: The Trials of Cate McCall
Cast: Kate Beckinsale,Bethany Brooke Anderson,Clancy Brown,James Cromwell,Dale Dickey,Taye Diggs,Kathy Baker,Nick Nolte,Mark Pellegrino,Lyle Kanouse,Michael Hyatt,Lily Knight,Amy Benedict,Jay Thomas,Isaiah Washington,Johnny Sneed,Omar Leyva,Joseph Lyle Taylor
Genre: Drama
External Links: IMDB
Director: Karen Moncrieff
Producers: Marc Bienstock,Joe Dain,Barbara Fiorentino,Karen Moncrieff,Jenny Hinkey,Eric Karten,Peter Schafer,Jim Klock
Writer: Karen Moncrieff
Duration: 89
IMDB rating: 6.3/10
Summary: In order to be reinstated to the bar and recover custody of her daughter, a hotshot lawyer, now in recovery and on probation, must take on the appeal of a woman wrongfully convicted of murder.
Votes
Good: 0
Bad: 0
GoodBad
0
Seeders
1
Leechers

Added: 2014-02-06

Size: 1.14 GB

Health: 25%

Hash (Base16): AA41E7FB238D2EF70E5F76EB89D84669F27DD432

Hash (Base32): VJA6P6ZDRUXPODS7O3VYTWCGNHZH3VBS

DownloadBookmark
^
The.Trials.of.Cate.McCall.2013.DVDRip.XviD.MP3-RARBG

http://www.imdb.com/title/tt1323973/





----------------------------------

Do you want to help us by donating ?
Bitcoin: 1GRt3ywthtCm3HbUu6HnnbYe5SUGvRAFi8
Litecoin: LbPvD6o7SdDah1qQTQmLoNRYgycx6MbCdV


----------------------------------



Info:
Format                                   : AVI
Format/Info                              : Audio Video Interleave
Format profile                           : OpenDML
File size                                : 1.14 GiB
Duration                                 : 1h 38mn
Overall bit rate                         : 1 671 Kbps
Movie name                               : Downloaded from RARBG.COM
Writing application                      : Lavf55.22.103
Comment                                  : Downloaded from RARBG.COM

Video
ID                                       : 0
Format                                   : xvid
Codec ID                                 : xvid
Duration                                 : 1h 38mn
Bit rate                                 : 1 399 Kbps
Width                                    : 720 pixels
Height                                   : 400 pixels
Display aspect ratio                     : 16:9
Frame rate                               : 23.976 fps
Bits/(Pixel*Frame)                       : 0.203
Stream size                              : 981 MiB (84%)

Audio
ID                                       : 1
Format                                   : MPEG Audio
Format version                           : Version 1
Format profile                           : Layer 3
Mode                                     : Joint stereo
Codec ID                                 : 55
Codec ID/Hint                            : MP3
Duration                                 : 1h 38mn
Bit rate mode                            : Constant
Bit rate                                 : 256 Kbps
Channel(s)                               : 2 channels
Sampling rate                            : 48.0 KHz
Compression mode                         : Lossy
Stream size                              : 180 MiB (15%)
Alignment                                : Aligned on interleaves
Interleave, duration                     : 24 ms (0.58 video frame)
Writing library                          : LAME3.99.5

Screens:






Notes:
Greetz to everyone


TRACKERSEEDLEECHDOWNLOADED
udp://9.rarbg.me:2710/announce
udp://11.rarbg.me:80/announce
udp://10.rarbg.me:80/announce
udp://12.rarbg.me:80/announce
udp://9.rarbg.com:2710/announce
udp://open.demonii.com:1337/announce
udp://tracker.publicbt.com:80/announce
udp://tracker.istole.it:80/announce
udp://tracker.openbittorrent.com:80/announce
udp://tracker.istole.it:6969/announce
http://tracker.trackerfix.com/announce
udp://tracker.ccc.de:80/announce
http://tracker.thepiratebay.org/announce
http://www.elitezones.ro/announce.php
http://elitezones.ro/announce.php
FILESIZE
The.Trials.of.Cate.McCall.2013.DVDRip.XviD.MP3-RARBG.avi1.14 GB
The.Trials.of.Cate.McCall.2013.DVDRip.XviD.MP3-RARBG.nfo2.6 KB
RARBG.com.txt31 B

Login

Account deleting

Are you sure you want to delete your account?

WARNING: This action cannot be undone!!!