Login / Register

The.Trials.of.Cate.McCall.2013.DVDRip.XviD.AC3-RARBG

Category: Video
Type: Movies
Movie Title: The Trials of Cate McCall
Cast: Kate Beckinsale,Bethany Brooke Anderson,Clancy Brown,James Cromwell,Dale Dickey,Taye Diggs,Kathy Baker,Nick Nolte,Mark Pellegrino,Lyle Kanouse,Michael Hyatt,Lily Knight,Amy Benedict,Jay Thomas,Isaiah Washington,Johnny Sneed,Omar Leyva,Joseph Lyle Taylor
Genre: Drama
External Links: IMDB
Director: Karen Moncrieff
Producers: Marc Bienstock,Joe Dain,Barbara Fiorentino,Karen Moncrieff,Jenny Hinkey,Eric Karten,Peter Schafer,Jim Klock
Writer: Karen Moncrieff
Duration: 89
IMDB rating: 6.3/10
Summary: In order to be reinstated to the bar and recover custody of her daughter, a hotshot lawyer, now in recovery and on probation, must take on the appeal of a woman wrongfully convicted of murder.
Votes
Good: 0
Bad: 0
GoodBad
0
Seeders
4
Leechers

Added: 2014-02-06

Size: 1.28 GB

Health: 25%

Hash (Base16): B51F3F97D4503E6436949E4C98BB23812A2EBB84

Hash (Base32): WUPT7F6UKA7GINUUTZGJROZDQEVC5O4E

DownloadBookmark
^
The.Trials.of.Cate.McCall.2013.DVDRip.XviD.AC3-RARBG

http://www.imdb.com/title/tt1323973/





----------------------------------

Do you want to help us by donating ?
Bitcoin: 1GRt3ywthtCm3HbUu6HnnbYe5SUGvRAFi8
Litecoin: LbPvD6o7SdDah1qQTQmLoNRYgycx6MbCdV


----------------------------------



Info:
Format                                   : AVI
Format/Info                              : Audio Video Interleave
Format profile                           : OpenDML
File size                                : 1.28 GiB
Duration                                 : 1h 29mn
Overall bit rate                         : 2 060 Kbps
Movie name                               : Downloaded from RARBG.COM
Writing application                      : Lavf55.22.103
Comment                                  : Downloaded from RARBG.COM

Video
ID                                       : 0
Format                                   : xvid
Codec ID                                 : xvid
Duration                                 : 1h 29mn
Bit rate                                 : 1 599 Kbps
Width                                    : 720 pixels
Height                                   : 384 pixels
Display aspect ratio                     : 1.85:1
Frame rate                               : 25.000 fps
Bits/(Pixel*Frame)                       : 0.231
Stream size                              : 1 020 MiB (78%)

Audio
ID                                       : 1
Format                                   : AC-3
Format/Info                              : Audio Coding 3
Codec ID                                 : 00001000-0000-0020-8000-00AA00389B71
Duration                                 : 1h 29mn
Bit rate                                 : 448 Kbps
Channel(s)                               : 6 channels
Channel positions                        : Front: L C R, Side: L R, LFE
Sampling rate                            : 48.0 KHz
Bit depth                                : 16 bits
Compression mode                         : Lossy
Stream size                              : 286 MiB (22%)
Interleave, duration                     : 32 ms (0.80 video frame)

Screens:






Notes:
Greetz to everyone


TRACKERSEEDLEECHDOWNLOADED
udp://9.rarbg.me:2710/announce
udp://11.rarbg.me:80/announce
udp://10.rarbg.me:80/announce
udp://12.rarbg.me:80/announce
udp://9.rarbg.com:2710/announce
udp://open.demonii.com:1337/announce
udp://tracker.publicbt.com:80/announce
udp://tracker.istole.it:80/announce
udp://tracker.openbittorrent.com:80/announce
udp://tracker.istole.it:6969/announce
http://tracker.trackerfix.com/announce
udp://tracker.ccc.de:80/announce
http://tracker.thepiratebay.org/announce
FILESIZE
The.Trials.of.Cate.McCall.2013.DVDRip.XviD.AC3-RARBG.avi1.28 GB
The.Trials.of.Cate.McCall.2013.DVDRip.XviD.AC3-RARBG.nfo2.44 KB
RARBG.com.txt31 B

Login

Account deleting

Are you sure you want to delete your account?

WARNING: This action cannot be undone!!!