Login / Register

The Trials of Cate McCall 2013 DVDRip X264 AC3 - BiTo

Category: Video
Type: Movies
Movie Title: The Trials of Cate McCall
Cast: Kate Beckinsale,Bethany Brooke Anderson,Clancy Brown,James Cromwell,Dale Dickey,Taye Diggs,Kathy Baker,Nick Nolte,Mark Pellegrino,Lyle Kanouse,Michael Hyatt,Lily Knight,Amy Benedict,Jay Thomas,Isaiah Washington,Johnny Sneed,Omar Leyva,Joseph Lyle Taylor
Genre: Drama
External Links: IMDB
Director: Karen Moncrieff
Producers: Marc Bienstock,Joe Dain,Barbara Fiorentino,Karen Moncrieff,Jenny Hinkey,Eric Karten,Peter Schafer,Jim Klock
Writer: Karen Moncrieff
Duration: 89
IMDB rating: 6.3/10
Summary: In order to be reinstated to the bar and recover custody of her daughter, a hotshot lawyer, now in recovery and on probation, must take on the appeal of a woman wrongfully convicted of murder.
Votes
Good: 0
Bad: 0
GoodBad
0
Seeders
1
Leechers

Added: 2014-02-06

Size: 1.14 GB

Health: 25%

Hash (Base16): 85BB53C774D509194F6E22CD3E7A4CA80F7715D8

Hash (Base32): QW5VHR3U2UERST3OELGT46SMVAHXOFOY

DownloadBookmark
^



----------------------------------

Do you want to help us by donating ?
Bitcoin: 1GRt3ywthtCm3HbUu6HnnbYe5SUGvRAFi8
Litecoin: LbPvD6o7SdDah1qQTQmLoNRYgycx6MbCdV


----------------------------------

Format                                   : Matroska
Format version                           : Version 4 / Version 2
File size                                : 1.13 GiB
Duration                                 : 1h 29mn
Overall bit rate mode                    : Variable
Overall bit rate                         : 1 817 Kbps
Encoded date                             : UTC 2014-02-06 02:07:02
Writing application                      : mkvmerge v6.5.0 ('Isn't she lovely') built on Oct 20 2013 12:50:05
Writing library                          : libebml v1.3.0 + libmatroska v1.4.1

Video
ID                                       : 1
Format                                   : AVC
Format/Info                              : Advanced Video Codec
Format profile                           : High@L4.1
Format settings, CABAC                   : Yes
Format settings, ReFrames                : 3 frames
Codec ID                                 : V_MPEG4/ISO/AVC
Duration                                 : 1h 29mn
Bit rate mode                            : Variable
Bit rate                                 : 1 332 Kbps
Maximum bit rate                         : 40.0 Mbps
Width                                    : 720 pixels
Height                                   : 384 pixels
Display aspect ratio                     : 1.85:1
Frame rate mode                          : Constant
Frame rate                               : 25.000 fps
Color space                              : YUV
Chroma subsampling                       : 4:2:0
Bit depth                                : 8 bits
Scan type                                : Progressive
Bits/(Pixel*Frame)                       : 0.193
Stream size                              : 850 MiB (73%)
Writing library                          : x264 core 130 r2274bm c832fe9
Encoding settings                        : cabac=1 / ref=4 / deblock=1:-1:-1 / analyse=0x3:0x113 / me=umh / subme=9 / psy=1 / psy_rd=1.00:0.15 / mixed_ref=1 / me_range=18 / chroma_me=1 / trellis=2 / 8x8dct=1 / cqm=0 / deadzone=21,11 / fast_pskip=0 / chroma_qp_offset=-6 / threads=10 / lookahead_threads=1 / sliced_threads=0 / slices=4 / nr=0 / decimate=1 / interlaced=0 / bluray_compat=0 / constrained_intra=0 / bframes=3 / b_pyramid=1 / b_adapt=2 / b_bias=0 / direct=1 / weightb=1 / open_gop=0 / weightp=0 / keyint=23 / keyint_min=1 / scenecut=40 / intra_refresh=0 / rc_lookahead=23 / rc=crf / mbtree=1 / crf=19.0 / qcomp=0.60 / qpmin=10 / qpmax=51 / qpstep=4 / vbv_maxrate=40000 / vbv_bufsize=30000 / crf_max=0.0 / nal_hrd=vbr / ip_ratio=1.40 / aq=1:1.00
Default                                  : Yes
Forced                                   : No

Audio
ID                                       : 2
Format                                   : AC-3
Format/Info                              : Audio Coding 3
Mode extension                           : CM (complete main)
Format settings, Endianness              : Big
Codec ID                                 : A_AC3
Duration                                 : 1h 29mn
Bit rate mode                            : Constant
Bit rate                                 : 448 Kbps
Channel(s)                               : 6 channels
Channel positions                        : Front: L C R, Side: L R, LFE
Sampling rate                            : 48.0 KHz
Bit depth                                : 16 bits
Compression mode                         : Lossy
Stream size                              : 286 MiB (25%)
Default                                  : Yes
Forced                                   : No

Screens:






TRACKERSEEDLEECHDOWNLOADED
http://tracker.coppersurfer.tk:6969/announce
udp://9.rarbg.me:2710/announce
udp://11.rarbg.me:80/announce
udp://10.rarbg.me:80/announce
udp://12.rarbg.me:80/announce
udp://9.rarbg.com:2710/announce
udp://open.demonii.com:1337/announce
udp://tracker.publicbt.com:80/announce
udp://tracker.istole.it:80/announce
udp://tracker.openbittorrent.com:80/announce
udp://tracker.istole.it:6969/announce
http://tracker.trackerfix.com/announce
udp://tracker.ccc.de:80/announce
http://tracker.thepiratebay.org/announce
FILESIZE
RARBG.com.txt31 B
The Trials of Cate McCall 2013 DVDRip X264 AC3 - BiTo(00h07m42s-00h08m17s)-002.mkv5.77 MB
The Trials of Cate McCall 2013 DVDRip X264 AC3 - BiTo.mkv1.13 GB

Login

Account deleting

Are you sure you want to delete your account?

WARNING: This action cannot be undone!!!