Login / Register

Nemesis.3.1996.720p.BluRay.x264-iFPD

Category: Video
Type: Movies
Movie Title: Nemesis 3: Time Lapse
Detected quality: 720p
Cast: Shelton Baily,Sharon Bruneau,Xavier Declie,Xavier Declie,Jon H. Epstein,Jon H. Epstein,Jon H. Epstein,Jon H. Epstein,Steven Estes,Sue Price,Debbie Muggli,Chad Stahelski,Rick Wallace,Tim Thomerson,Norbert Weisser,Jahi J.J. Zuri,Earl White,Bobby Brown
Genre: Action, Thriller, Sci-Fi
External Links: IMDB
Director: Albert Pyun
Producers: Jessica G. Budin,Tom Karnowski,Paul Rosenblum,Gary Schmoeller
Writers: Rebecca Charles,Albert Pyun
Duration: 85
IMDB rating: 3.5 (602 votes)
Summary: Using footage left over from Nemesis 2 and a very thin story line sees Alex again fighting the cyborg mercenaries in 1998 East Africa. This time, Alex finds that she has 20 half sisters who are waiting for her to return to 2077. Central Command wants Alex captured alive and scanned to see if her DNA is a strong and more powerful strain than the normal. But Alex may be too tough for Farnsworth to capture.
Votes
Good: 0
Bad: 0
GoodBad
2
Seeders
1
Leechers

Added: 2014-07-15

Size: 3.3 GB

Health: 100%

Hash (Base16): 1585CC0E5EE1FBC8AAA2BA8EC5C69A5BA6234123

Hash (Base32): CWC4YDS64H54RKVCXKHMLRU2LOTCGQJD

DownloadBookmark
^

Nemesis.3.1996.720p.BluRay.x264-iFPD

image
[mediainfo]

Video
ID : 1
Format : AVC
Format/Info : Advanced Video Codec
Format profile : High@L4.1
Format settings, CABAC : Yes
Format settings, ReFrames : 5 frames
Codec ID : V_MPEG4/ISO/AVC
Duration : 1h 30mn
Bit rate : 4 717 Kbps
Width : 1 280 pixels
Height : 720 pixels
Display aspect ratio : 16:9
Frame rate mode : Constant
Frame rate : 24.000 fps
Color space : YUV
Chroma subsampling : 4:2:0
Bit depth : 8 bits
Scan type : Progressive
Bits/(Pixel*Frame) : 0.213
Stream size : 2.93 GiB (89%)
Writing library : x264 core 142 r2431 ac76440
Encoding settings : cabac=1 / ref=5 / deblock=1:0:0 / analyse=0x3:0x113 / me=umh / subme=7 / psy=1 / psy_rd=1.00:0.00 / mixed_ref=1 / me_range=16 / chroma_me=1 / trellis=1 / 8x8dct=1 / cqm=0 / deadzone=21,11 / fast_pskip=0 / chroma_qp_offset=-2 / threads=12 / lookahead_threads=2 / sliced_threads=0 / nr=0 / decimate=1 / interlaced=0 / bluray_compat=0 / constrained_intra=0 / bframes=3 / b_pyramid=2 / b_adapt=2 / b_bias=0 / direct=3 / weightb=1 / open_gop=0 / weightp=2 / keyint=250 / keyint_min=24 / scenecut=40 / intra_refresh=0 / rc_lookahead=50 / rc=2pass / mbtree=1 / bitrate=4717 / ratetol=1.0 / qcomp=0.60 / qpmin=0 / qpmax=69 / qpstep=4 / cplxblur=20.0 / qblur=0.5 / ip_ratio=1.40 / aq=1:1.00
Default : Yes
Forced : No

Audio
ID : 2
Format : AC-3
Format/Info : Audio Coding 3
Mode extension : CM (complete main)
Format settings, Endianness : Big
Codec ID : A_AC3
Duration : 1h 30mn
Bit rate mode : Constant
Bit rate : 448 Kbps
Channel(s) : 6 channels
Channel positions : Front: L C R, Side: L R, LFE
Sampling rate : 48.0 KHz
Bit depth : 16 bits
Compression mode : Lossy
Stream size : 291 MiB (9%)
Title : English
Language : English
Default : Yes
Forced : No

[/mediainfo]

TRACKERSEEDLEECHDOWNLOADED
udp://tracker.coppersurfer.tk:6969/announce200
udp://9.rarbg.me:2710/announce
udp://11.rarbg.me:80/announce
udp://10.rarbg.me:80/announce
udp://12.rarbg.me:80/announce
udp://9.rarbg.com:2710/announce
udp://open.demonii.com:1337/announce
udp://tracker.publicbt.com:80/announce
udp://tracker.istole.it:80/announce
udp://tracker.openbittorrent.com:80/announce
udp://tracker.istole.it:6969/announce
http://tracker.istole.it/announce
http://tracker.nwps.ws:6969/announce
http://tracker.tfile.me/announce
http://tracker.trackerfix.com/announce
http://9.rarbg.com:2710/announce
udp://tracker.ccc.de:80/announce
http://tracker.thepiratebay.org/announce
http://www.eddie4.nl:6969/announce
udp://tracker-ccc.de:6969/announce
FILESIZE
RARBG.com.txt31 B
Sample/ifpd-nemesis3.us-720p-sample.mkv25.72 MB
ifpd-nemesis3.us-720p.mkv3.27 GB
ifpd-nemesis3.us-720p.nfo1.92 KB

Related results

Date Title Size Files Seeds Leechs Category Health
Video(Movies) 3.49 GB 3 2014-07-18 0 1 25%
Video(Movies) 3.28 GB 4 2014-07-05 1 1 25%
Video(Movies) 3.28 GB 4 2014-07-04 0 1 25%
Video(Movies) 6.71 GB 1 2014-07-15 0 2 25%
Video(3D Movies) 4.12 GB 3 2012-12-07 0 1 25%
Video(Movies) 1.68 GB 6 2014-02-10 0 1 25%
Video(Movies) 756.9 MB 2 2014-12-06 0 1 25%
Video(Movies) 1.86 GB 2 2014-12-16 0 1 25%
Video(Movies) 11.04 GB 4 2015-01-13 0 1 25%

Login

Account deleting

Are you sure you want to delete your account?

WARNING: This action cannot be undone!!!