Login / Register

The.Bachelorette.S10E07.720p.HDTV.x264-BAJSKORV[rartv]

Category: Video
Type: TV
Movie Title: The Bachelorette
Season: 10
Episode: 7
Episode Title: Week 6 (S10)
Release date: 2014-06-22
Cast: Ken Fuchs,David Price,Jason A. Carbone,Marshall Watson,Mike Fleiss,Chris Harrison,Jerry Ferris,Ali Fedotowsky,Ashley Hebert,Deanna Pappas,Jason Mesnick,Jillian Harris,Trista Rehn,Ryan Sutter,Benjamin Flajnik,J.P. Rosenbaum,Kiptyn Locke,Reid Rosentha
Genre: Game-Show, Reality-TV, Romance
External Links: IMDB
Directors: Jason A. Carbone,Jason A. Carbone,Ken Fuchs,German Abarca Jr.,Marshall Watson,David Price,Nick Foss,Brett Register,Sarah De Lao
Producers: Mike Aho,Jason A. Carbone,Jason A. Carbone,Liza DiCarlo,Micah Dyer,Jason Ehrlich,Elan Gale,Lyle Gamm,David Gardner,Ben Hatta,Jayna Pellegrino,John Carlo Zenone,Lisa Levenson,Mimi Freedman,Mark Weingarten,Heather Adams,Jody Paul,Brooke Glassman
Writers: Mike Fleiss,Kristian Harloff,Troy Vincent
Duration: 60
Original run: 2003-01-07
IMDB rating: 2.8/10
Summary: Ashley Hebert couldn't admit she was in love with "Bachelor" Brad Womack - and it might have cost her the final rose - but that's all in the past. The energetic and vivacious Hebert, is ready to start a new life with a soul mate she might soon meet in the seventh edition of "The Bachelorette."
Votes
Good: 0
Bad: 0
GoodBad
1
Seeders
0
Leechers

Added: 2014-07-01

Size: 2.06 GB

Health: 25%

Hash (Base16): 1A76241C8229DEACA4D107DFCA8CFA01191AD4DA

Hash (Base32): DJ3CIHECFHPKZJGRA7P4VDH2AEMRVVG2

DownloadBookmark
^

The.Bachelorette.S10E07.720p.HDTV.x264-BAJSKORV[rartv]

image
[mediainfo]

Video
ID : 1
Format : AVC
Format/Info : Advanced Video Codec
Format profile : High@L4.1
Format settings, CABAC : Yes
Format settings, ReFrames : 8 frames
Codec ID : V_MPEG4/ISO/AVC
Duration : 1h 25mn
Bit rate : 2 955 Kbps
Width : 1 280 pixels
Height : 720 pixels
Display aspect ratio : 16:9
Frame rate mode : Constant
Frame rate : 59.880 fps
Original frame rate : 59.940 fps
Color space : YUV
Chroma subsampling : 4:2:0
Bit depth : 8 bits
Scan type : Progressive
Bits/(Pixel*Frame) : 0.054
Stream size : 1.77 GiB (87%)
Writing library : x264 core 142 r2431 ac76440
Encoding settings : cabac=1 / ref=8 / deblock=1:-2:-2 / analyse=0x3:0x113 / me=umh / subme=9 / psy=1 / psy_rd=1.00:0.00 / mixed_ref=1 / me_range=24 / chroma_me=1 / trellis=1 / 8x8dct=1 / cqm=0 / deadzone=21,11 / fast_pskip=0 / chroma_qp_offset=-2 / threads=18 / lookahead_threads=2 / sliced_threads=0 / nr=0 / decimate=1 / interlaced=0 / bluray_compat=0 / constrained_intra=0 / bframes=5 / b_pyramid=2 / b_adapt=2 / b_bias=0 / direct=3 / weightb=1 / open_gop=0 / weightp=2 / keyint=250 / keyint_min=25 / scenecut=40 / intra_refresh=0 / rc_lookahead=50 / rc=crf / mbtree=1 / crf=20.0 / qcomp=0.60 / qpmin=0 / qpmax=69 / qpstep=4 / ip_ratio=1.40 / aq=1:1.00
Language : English
Default : No
Forced : No

Audio
ID : 2
Format : AC-3
Format/Info : Audio Coding 3
Mode extension : CM (complete main)
Format settings, Endianness : Big
Codec ID : A_AC3
Duration : 1h 25mn
Bit rate mode : Constant
Bit rate : 384 Kbps
Channel(s) : 2 channels
Channel positions : Front: L R
Sampling rate : 48.0 KHz
Bit depth : 16 bits
Compression mode : Lossy
Stream size : 236 MiB (11%)
Default : Yes
Forced : No

[/mediainfo]

TRACKERSEEDLEECHDOWNLOADED
udp://9.rarbg.me:2710/announce
udp://11.rarbg.me:80/announce
udp://10.rarbg.me:80/announce
udp://12.rarbg.me:80/announce
udp://9.rarbg.com:2710/announce
udp://open.demonii.com:1337/announce
udp://tracker.publicbt.com:80/announce
udp://tracker.istole.it:80/announce
udp://tracker.openbittorrent.com:80/announce
udp://tracker.istole.it:6969/announce
http://tracker.istole.it/announce
http://bttracker.crunchbanglinux.org:6969/announce
http://tracker.best-torrents.net:6969/announce
http://tracker.trackerfix.com/announce
udp://tracker.ccc.de:80/announce
http://tracker.thepiratebay.org/announce
http://server2.9sheng.cn:6969/announce
udp://tracker-ccc.de:6969/announce
FILESIZE
RARBG.com.txt31 B
Sample/the.bachelorette.s10e07.720p.hdtv.x264-bajskorv.sample.mkv22.09 MB
The.Bachelorette.S10E07.720p.HDTV.x264-BAJSKORV.mkv2.04 GB
the.bachelorette.s10e07.720p.hdtv.x264-bajskorv.nfo82 B

Related results

Date Title Size Files Seeds Leechs Category Health
Video(TV) 2.45 GB 3 2014-07-14 0 1 25%
Video(TV) 2.07 GB 3 2014-07-07 0 1 25%
Video(TV) 313.42 MB 3 2014-06-09 0 1 25%
Video(TV) 565.1 MB 3 2014-06-01 1 0 25%
Video(TV) 2.24 GB 4 2014-06-01 0 1 25%

Login

Account deleting

Are you sure you want to delete your account?

WARNING: This action cannot be undone!!!