Login / Register
DVDRip

The.Brides.of.Sodom.2013.DVDRip.XviD-AQOS

Category: Video
Type: Movies
Movie Title: The Brides of Sodom
Detected quality: DVDRip
Cast: David Taylor,Dahlia Dark,Beverly Lynne,Jacqui Holland,Jessen Noviello,Domiziano Arcangeli,Daniel Sobieray,Robin Bain,Dylan Vox,Elina Madison,Marta Zolynska,Greg Chandler Maness,Jess Allen,Peter Stickles,Rachel Zeskind,Domiziano Arcangeli,Eder López
Genre: Fantasy, Horror, Sci-Fi
External Links: IMDB
Director: Creep Creepersin
Producers: Domiziano Arcangeli,David S. Sterling,Michael Elkin,Kristen Zaik,Domiziano Arcangeli,Matt Chassin
Writer: Creep Creepersin
Duration: 119
IMDB rating: 3.6 (139 votes)
Summary: Set in a post apocalyptic world where vampires named for Greek gods, and witches rule. It is a classic vampire story with some real twists: The plot centers around a male vampire named Eros who falls in love with a human named Samuel. Eros wants to "save" Samuel and make him a vampire, but Eros evil vampire lover, Dionysus has other ideas. Matters are complicated by Eros' sister/lover, Persephone, an ambiguous Bookkeeper and three witches, who know secrets of the universe and The Laws Of Eternity.A deep tale of decadence,erotica and Major stylized horror themes,shot around surreal and post apocalyptic sets on one hand and lavish,dark Gothic atmospheres on the other.
Votes
Good: 0
Bad: 0
GoodBad
1
Seeders
0
Leechers

Added: 2014-07-15

Size: 807.56 MB

Health: 25%

Hash (Base16): 0ADD759C587E77DDD29B702EED97C172A8160FCE

Hash (Base32): BLOXLHCYPZ353UU3OAXO3F6BOKUBMD6O

DownloadBookmark
^

The.Brides.of.Sodom.2013.DVDRip.XviD-AQOS

image

Title: The Brides of Sodom (2013)
IMDB Rating: 3.6/10
Genres: Fantasy , Horror , Thriller
Actors: Domiziano Arcangeli , David Taylor , Rachel Zeskind , Dylan Vox , Beverly Lynne , Peter Stickles , Tara Alexis , Jess Allen , Zaina Juliette Ark'Keenya , Robin Bain , Dahlia Dark , Dolce Death , Quentin Elias , Joel Hebner , Jacqui Holland
Runtime: 89
Year: 2013
Plot:
Set in a post apocalyptic world where vampires named for Greek gods| and witches rule. It is a classic vampire story with some real twists: The plot centers around a
male vampire named Eros who falls in love with a human named Samuel. Eros wants to "save" Samuel and make him a vampire| but Eros evil vampire lover| Dionysus has
other ideas. Matters are complicated by Eros' sister/lover| Persephone| an ambiguous Bookkeeper and three witches| who know secrets of the universe and The Laws Of
Eternity.A deep tale of decadence|erotica and Major stylized horror themes|shot around surreal and post apocalyptic sets on one hand and lavish|dark Gothic
atmospheres on the other. [mediainfo]


Format : AVI
Format/Info : Audio Video Interleave
File size : 798 MiB
Duration : 1h 23mn
Overall bit rate mode : Variable
Overall bit rate : 1 335 Kbps

Video
ID : 0
Format : MPEG-4 Visual
Format profile : Advanced Simple@L5
Format settings, BVOP : 2
Format settings, QPel : No
Format settings, GMC : No warppoints
Format settings, Matrix : Default (H.263)
Codec ID : XVID
Codec ID/Hint : XviD
Duration : 1h 23mn
Bit rate : 1 203 Kbps
Width : 720 pixels
Height : 304 pixels
Display aspect ratio : 2.35:1
Frame rate : 23.976 fps
Color space : YUV
Chroma subsampling : 4:2:0
Bit depth : 8 bits
Scan type : Progressive
Compression mode : Lossy
Bits/(Pixel*Frame) : 0.229
Stream size : 719 MiB (90%)
Writing library : XviD 1.2.1 (UTC 2008-12-04)

Audio
ID : 1
Format : MPEG Audio
Format version : Version 1
Format profile : Layer 3
Mode : Joint stereo
Mode extension : MS Stereo
Codec ID : 55
Codec ID/Hint : MP3
Duration : 1h 23mn
Bit rate mode : Variable
Bit rate : 119 Kbps
Nominal bit rate : 128 Kbps
Channel(s) : 2 channels
Sampling rate : 48.0 KHz
Compression mode : Lossy
Stream size : 71.4 MiB (9%)
Alignment : Aligned on interleaves
Interleave, duration : 24 ms (0.58 video frame)
Interleave, preload duration : 70 ms
Title : VTS_02_1 T80 2_0ch 192Kbps DELAY 0ms_new
Writing library : LAME3.99r
Encoding settings : -m j -V 4 -q 2 -lowpass 17 --abr 128

[/mediainfo]

TRACKERSEEDLEECHDOWNLOADED
udp://tracker.coppersurfer.tk:6969/announce102
http://mgtracker.org:2710/announce010
udp://9.rarbg.me:2710/announce
udp://11.rarbg.me:80/announce
udp://10.rarbg.me:80/announce
udp://12.rarbg.me:80/announce
udp://9.rarbg.com:2710/announce
udp://open.demonii.com:1337/announce
udp://tracker.publicbt.com:80/announce
udp://tracker.istole.it:80/announce
udp://tracker.openbittorrent.com:80/announce
udp://tracker.istole.it:6969/announce
http://tracker.istole.it/announce
http://tracker.trackerfix.com/announce
http://exodus.desync.com:6969/announce
udp://tracker.ccc.de:80/announce
http://tracker.thepiratebay.org/announce
http://torrent.gresille.org/announce
udp://tracker-ccc.de:6969/announce
http://www.les-renseignements-genereux.org:80/announce
FILESIZE
RARBG.com.txt31 B
aqos-the.brides.of.sodom.2013.dvdrip.xvid.avi797.79 MB
sample.avi9.77 MB

Related results

Date Title Size Files Seeds Leechs Category Health
Video(Movies) 807.56 MB 3 2014-07-14 1 0 25%

Login

Account deleting

Are you sure you want to delete your account?

WARNING: This action cannot be undone!!!