Login / Register
1080p

Mad.Dog.and.Glory.1993.1080p.BluRay.X264-AMIABLE

Category: Video
Type: Movies
Movie Title: Mad Dog and Glory
Detected quality: 1080p
Release date: 1993-03-04
Cast: Robert De Niro, Bill Murray, Uma Thurman, David Caruso, Kathy Baker, Richard Belzer, Derek Annunciation, Anthony Cannata, Clem Caserta, Tony Castillo
Genre: Drama, Romance, Comedy, Crime
External Links: IMDB
IMDB rating: 6.2 (15,556 votes)
Summary: After his life is saved by a lonely cop, a mobster who moonlights as a stand-up comedian provides the cop with a beautiful young companion.
Votes
Good: 0
Bad: 0
GoodBad
0
Seeders
1
Leechers

Added: 2014-07-09

Size: 7.66 GB

Health: 25%

Hash (Base16): DF1ADE15AD71B083F1A03178A43BBB24BBADAEB0

Hash (Base32): 34NN4FNNOGYIH4NAGF4KIO53ES523LVQ

DownloadBookmark
^

Mad.Dog.and.Glory.1993.1080p.BluRay.X264-AMIABLE

image

Title: Mad Dog and Glory (1993)
IMDB Rating: 6.2/10
Genres: Comedy , Crime , Drama , Romance
Actors: Robert De Niro , Uma Thurman , Bill Murray , David Caruso , Mike Starr , Tom Towles , Kathy Baker , Derek Anunciation , Doug Hara , Evan Lionel , Anthony Cannata , J.J. Johnston , Guy Van Swearingen , Jack Wallace , Richard Belzer
Runtime: 97
Year: 1993
Plot:
Wayne Dobie is a shy police photographer who saves the life of crime boss Frank Milo. Greatful| Milo insists on being Wayne's friend| offering him the companionship
of "Glory"| one of his employees. Wayne is thus in a difficult situation: he can't be seen to be fraternising with criminals| and he's unsure about how to deal with
Glory. [mediainfo]

Video
ID : 1
Format : AVC
Format/Info : Advanced Video Codec
Format profile : [email protected]
Format settings, CABAC : Yes
Format settings, ReFrames : 4 frames
Codec ID : V_MPEG4/ISO/AVC
Duration : 1h 36mn
Bit rate : 9 801 Kbps
Width : 1 920 pixels
Height : 1 040 pixels
Display aspect ratio : 1.85:1
Frame rate mode : Constant
Frame rate : 23.976 fps
Color space : YUV
Chroma subsampling : 4:2:0
Bit depth : 8 bits
Scan type : Progressive
Bits/(Pixel*Frame) : 0.205
Stream size : 6.48 GiB (85%)
Writing library : x264 core 142 r2431 ac76440
Encoding settings : cabac=1 / ref=4 / deblock=1:-3:-3 / analyse=0x3:0x133 / me=umh / subme=8 / psy=1 / psy_rd=1.00:0.15 / mixed_ref=1 / me_range=16 / chroma_me=1 / trellis=1 / 8x8dct=1 / cqm=0 / deadzone=21,11 / fast_pskip=0 / chroma_qp_offset=-3 / threads=12 / lookahead_threads=2 / sliced_threads=0 / nr=0 / decimate=1 / interlaced=0 / bluray_compat=0 / constrained_intra=0 / bframes=3 / b_pyramid=2 / b_adapt=2 / b_bias=0 / direct=3 / weightb=1 / open_gop=0 / weightp=2 / keyint=240 / keyint_min=23 / scenecut=40 / intra_refresh=0 / rc_lookahead=50 / rc=2pass / mbtree=1 / bitrate=9801 / ratetol=1.0 / qcomp=0.60 / qpmin=0 / qpmax=69 / qpstep=4 / cplxblur=20.0 / qblur=0.5 / ip_ratio=1.40 / aq=1:1.00
Language : English
Default : Yes
Forced : No

Audio
ID : 2
Format : DTS
Format/Info : Digital Theater Systems
Mode : 16
Format settings, Endianness : Big
Codec ID : A_DTS
Duration : 1h 36mn
Bit rate mode : Constant
Bit rate : 1 509 Kbps
Channel(s) : 2 channels
Channel positions : Front: L R
Sampling rate : 48.0 KHz
Bit depth : 24 bits
Compression mode : Lossy
Stream size : 1.02 GiB (13%)
Language : English
Default : Yes
Forced : No

Text
ID : 3
Format : UTF-8
Codec ID : S_TEXT/UTF8
Codec ID/Info : UTF-8 Plain Text
Language : English
Default : No
Forced : No

Menu
00:00:00.000 : en:00:00:00.000
00:06:24.301 : en:00:06:24.301
00:13:54.917 : en:00:13:54.917
00:22:14.041 : en:00:22:14.041
00:31:20.045 : en:00:31:20.045
00:39:51.806 : en:00:39:51.806
00:48:27.655 : en:00:48:27.655
00:54:52.164 : en:00:54:52.164
01:00:59.447 : en:01:00:59.447
01:08:08.167 : en:01:08:08.167
01:15:11.590 : en:01:15:11.590
01:24:17.010 : en:01:24:17.010

[/mediainfo]

TRACKERSEEDLEECHDOWNLOADED
udp://tracker.coppersurfer.tk:6969/announce010
udp://9.rarbg.me:2710/announce
udp://11.rarbg.me:80/announce
udp://10.rarbg.me:80/announce
udp://12.rarbg.me:80/announce
udp://9.rarbg.com:2710/announce
udp://open.demonii.com:1337/announce
udp://tracker.publicbt.com:80/announce
udp://tracker.istole.it:80/announce
udp://tracker.openbittorrent.com:80/announce
udp://tracker.istole.it:6969/announce
http://tracker.istole.it/announce
http://tracker.trackerfix.com/announce
udp://tracker.ccc.de:80/announce
udp://9.rarbg.to:2710/announce
http://tracker.thepiratebay.org/announce
udp://tracker-ccc.de:6969/announce
FILESIZE
Mad.Dog.and.Glory.1993.1080p.BluRay.X264-AMIABLE.mkv7.65 GB
Proof/mad.dog.and.glory.1993.1080p.bluray.x264-amiable.proof.jpg117.23 KB
RARBG.com.txt31 B
Subs/Mad.Dog.and.Glory.1993.1080p.BluRay.X264-AMIABLE.idx95.87 KB
Subs/Mad.Dog.and.Glory.1993.1080p.BluRay.X264-AMIABLE.sub10.52 MB
mad.dog.and.glory.1993.1080p.bluray.x264-amiable.nfo1.43 KB

Related results

Date Title Size Files Seeds Leechs Category Health
Video(Movies) 4.38 GB 5 2014-07-07 0 1 25%
Video(Movies) 7.72 GB 90 2014-07-08 0 1 25%
Video(Movies) 4.37 GB 99 2014-07-07 2 0 25%
Video(Movies) 4.38 GB 5 2014-07-07 0 1 25%
Video(Movies) 7.71 GB 4 2015-01-13 0 2 25%

Login

Account deleting

Are you sure you want to delete your account?

WARNING: This action cannot be undone!!!