Login / Register
Screener

The Other Woman 2014 DVDSCR READNFO XviD AC3-MiLLENiUM

Category: Video
Type: Movies
Language: English
Movie Title: The Other Woman
Detected quality: Screener
Release date: 2014-04-24
Cast: Kate Upton,Cameron Diaz,Leslie Mann,Nikolaj Coster-Waldau,Taylor Kinney,Nicki Minaj,Don Johnson,Jeanmarie Lally,Uzimann,Nina Barry,Alyshia Ochse,Ashley Cusato,Madison McKinley,Victor Cruz,David Thornton,Tony Joe,Craig Castaldo,Alan Davis,Colin Bannon
Genre: Comedy, Romance
External Links: IMDB
Director: Nick Cassavetes
Producers: Maguy R. Cohen,Julie Yorn,Donald J. Lee Jr.,Chuck Pacheco,Patrick Walmsley
Writer: Melissa Stack
Duration: 109
IMDB rating: 6.0 (69,121 votes)
Summary: After discovering her boyfriend is married, Carly soon meets the wife he's been betraying. And when yet another love affair is discovered, all three women team up to plot revenge on the three-timing S.O.B.
Votes
Good: 0
Bad: 0
GoodBad
1
Seeders
0
Leechers

Added: 2014-07-04

Size: 1.8 GB

Health: 25%

Hash (Base16): 52130363ED6B814DA5EB5672693F53F8242566F3

Hash (Base32): KIJQGY7NNOAU3JPLKZZGSP2T7ASCKZXT

DownloadBookmark
^

The Other Woman 2014 DVDSCR READNFO XviD AC3-MiLLENiUM

image

Title: The Other Woman (2014)
IMDB Rating: 6.5/10
Genres: Comedy , Romance
Actors: Cameron Diaz , Leslie Mann , Nikolaj Coster-Waldau , Don Johnson , Kate Upton , Taylor Kinney , Nicki Minaj , Kenneth Maharaj , Alyshia Ochse , Victor Cruz , Madison McKinley , David Thornton , Olivia Culpo , John 'B.J.' Bryant , Chelsea Turnbo
Runtime: 109
Year: 2014
Plot:
After discovering her boyfriend is married| Carly Whitten tries to get her ruined life back on track. But when she accidentally meets the wife he's been cheating on|
she realizes they have much in common| and her sworn enemy becomes her greatest friend. When yet another affair is discovered| all three women team up to plot mutual
revenge on their cheating| lying| three-timing SOB.


The Other Woman 2014 DVDSCR READNFO XviD AC3-MiLLENiUM

General

Source...............: BL4CKP34RL [THANKS]
IMDb Information.... : http://www.imdb.com/title/tt2203939/
Sample Included......: yes

NOTES: Cropped 2px from the top/bottom, blurred the fox logo, threw a few filters at it and hey presto Job Done. Might do a V2 if can get ahold of the proper source file.

[mediainfo]

General
Complete name : The Other Woman 2014 DVDSCR READNFO XviD AC3-MiLLENiUM.avi
Format : AVI
Format/Info : Audio Video Interleave
File size : 1.75 GiB
Duration : 1h 49mn
Overall bit rate : 2 290 Kbps

Video
ID : 0
Format : MPEG-4 Visual
Format profile : Advanced Simple@L5
Format settings, BVOP : 2
Format settings, QPel : No
Format settings, GMC : No warppoints
Format settings, Matrix : Default (H.263)
Muxing mode : Packed bitstream
Codec ID : XVID
Codec ID/Hint : XviD
Duration : 1h 49mn
Bit rate : 1 897 Kbps
Width : 720 pixels
Height : 304 pixels
Display aspect ratio : 2.35:1
Frame rate : 29.970 fps
Color space : YUV
Chroma subsampling : 4:2:0
Bit depth : 8 bits
Scan type : Progressive
Compression mode : Lossy
Bits/(Pixel*Frame) : 0.289
Stream size : 1.45 GiB (83%)
Writing library : XviD 64

Audio
ID : 1
Format : AC-3
Format/Info : Audio Coding 3
Mode extension : CM (complete main)
Format settings, Endianness : Big
Codec ID : 2000
Duration : 1h 49mn
Bit rate mode : Constant
Bit rate : 384 Kbps
Channel(s) : 2 channels
Channel positions : Front: L R
Sampling rate : 48.0 KHz
Bit depth : 16 bits
Compression mode : Lossy
Stream size : 300 MiB (17%)
Alignment : Aligned on interleaves
Interleave, duration : 64 ms (1.92 video frames)
Interleave, preload duration : 192 ms

[/mediainfo]

Screens:
image
image
image
image
image
image

TRACKERSEEDLEECHDOWNLOADED
udp://9.rarbg.me:2710/announce
udp://11.rarbg.me:80/announce
udp://10.rarbg.me:80/announce
udp://12.rarbg.me:80/announce
udp://9.rarbg.com:2710/announce
udp://open.demonii.com:1337/announce
udp://tracker.publicbt.com:80/announce
udp://tracker.istole.it:80/announce
udp://tracker.openbittorrent.com:80/announce
udp://tracker.istole.it:6969/announce
http://tracker.istole.it/announce
http://tracker.trackerfix.com/announce
http://exodus.desync.com:6969/announce
udp://tracker.ccc.de:80/announce
http://tracker.thepiratebay.org/announce
udp://tracker-ccc.de:6969/announce
FILESIZE
RARBG.com.txt31 B
Sample.avi51.21 MB
The Other Woman 2014 DVDSCR READNFO XviD AC3-MiLLENiUM.avi1.75 GB
other.nfo4.06 KB

Related results

Date Title Size Files Seeds Leechs Category Health
Video(Movies) 1.8 GB 3 2014-07-03 2 3 100%
Video(Movies) 1.8 GB 4 2014-07-03 2 1 100%
Video(Movies) 1.8 GB 5 2014-07-03 2 2 25%

Login

Account deleting

Are you sure you want to delete your account?

WARNING: This action cannot be undone!!!