Login / Register
1080p

Back.to.the.Sea.2012.1080p.BluRay.x264-USURY

Category: Video
Type: Movies
Movie Title: Back to the Sea
Detected quality: 1080p
Release date: 2012-01-26
Cast: Mark Hamill,Tara Strong,Tim Curry,Christian Slater,Chris Edgerly,Yuri Lowenthal,James Sie,Tom Kenny,Kath Soucie,Fred Tatasciore,Hynden Walch,Nolan North,Sam Riegel,Gwendoline Yeo,Matthew Yang King,Tom Kenny,Ali Hillis,Andrew Dolan,Ogie Banks,Annie Mumolo
Genre: Animation
External Links: IMDB
Director: Thom Lu
Producers: Evan Tylor,Tom Raycove,Gordon McGhie,Calvin Yao,Kathryn Griffiths,Warren Wang
Writers: James D. Mortellaro,Calvin Yao
Duration: 96
IMDB rating: 4.0 (15 votes)
Summary: Kevin, a young flying fish, lives in the New York harbor. He dreams of leading his family back to Barbados-the mythical kingdom of the flying fish. One fateful day his adventurous nature finds him captured by a fishing ship and delivered to the fish tank of a famous restaurant in New York city's Chinatown, where he meets a quiet young boy who also longs for excitement and adventure. The two become fast friends and begin a daring quest to get Kevin back home to the sea.
Votes
Good: 0
Bad: 0
GoodBad
1
Seeders
2
Leechers

Added: 2014-07-15

Size: 4.37 GB

Health: 25%

Hash (Base16): A752E39DD9A92BD402C34EEA2854724536BC6150

Hash (Base32): U5JOHHOZVEV5IAWDJ3VCQVDSIU3LYYKQ

DownloadBookmark
^

Back.to.the.Sea.2012.1080p.BluRay.x264-USURY

image

Title: Back to the Sea (2012)
IMDB Rating: 5.0/10
Genres: Animation , Comedy
Actors: Yuri Lowenthal , Kath Soucie , Tom Kenny , Mark Hamill , Matthew Yang King , Tim Curry , Christian Slater , Tara Strong , James Sie , Annie Mumolo , Nolan North , Ogie Banks , Justin Cowden , Andrew Dolan , Chris Edgerly
Runtime: 96
Year: 2012
Plot:
Kevin| a young flying fish| lives in the New York harbor. He dreams of leading his family back to Barbados-the mythical kingdom of the flying fish. One fateful day
his adventurous nature finds him captured by a fishing ship and delivered to the fish tank of a famous restaurant in New York city's Chinatown| where he meets a
quiet young boy who also longs for excitement and adventure. The two become fast friends and begin a daring quest to get Kevin back home to the sea. [mediainfo]

Video
ID : 1
Format : AVC
Format/Info : Advanced Video Codec
Format profile : [email protected]
Format settings, CABAC : Yes
Format settings, ReFrames : 4 frames
Codec ID : V_MPEG4/ISO/AVC
Duration : 1h 37mn
Bit rate : 5 639 Kbps
Width : 1 920 pixels
Height : 1 080 pixels
Display aspect ratio : 16:9
Frame rate mode : Constant
Frame rate : 23.976 fps
Color space : YUV
Chroma subsampling : 4:2:0
Bit depth : 8 bits
Scan type : Progressive
Bits/(Pixel*Frame) : 0.113
Stream size : 3.76 GiB (86%)
Writing library : x264 core 142 r2431 ac76440
Encoding settings : cabac=1 / ref=4 / deblock=1:0:0 / analyse=0x3:0x133 / me=umh / subme=7 / psy=1 / psy_rd=1.00:0.00 / mixed_ref=1 / me_range=16 / chroma_me=1 / trellis=1 / 8x8dct=1 / cqm=0 / deadzone=21,11 / fast_pskip=0 / chroma_qp_offset=-2 / threads=6 / lookahead_threads=1 / sliced_threads=0 / nr=0 / decimate=1 / interlaced=0 / bluray_compat=0 / constrained_intra=0 / bframes=3 / b_pyramid=2 / b_adapt=2 / b_bias=0 / direct=3 / weightb=1 / open_gop=0 / weightp=2 / keyint=240 / keyint_min=23 / scenecut=40 / intra_refresh=0 / rc_lookahead=50 / rc=2pass / mbtree=1 / bitrate=5639 / ratetol=1.0 / qcomp=0.60 / qpmin=0 / qpmax=69 / qpstep=4 / cplxblur=20.0 / qblur=0.5 / ip_ratio=1.40 / aq=1:1.00
Language : English
Default : Yes
Forced : No

Audio
ID : 2
Format : DTS
Format/Info : Digital Theater Systems
Mode : 16
Format settings, Endianness : Big
Codec ID : A_DTS
Duration : 1h 37mn
Bit rate mode : Constant
Bit rate : 768 Kbps
Channel(s) : 6 channels
Channel positions : Front: L C R, Side: L R, LFE
Sampling rate : 48.0 KHz
Bit depth : 24 bits
Compression mode : Lossy
Stream size : 536 MiB (12%)
Language : English
Default : Yes
Forced : No

Menu
00:00:00.000 : :00:00:00.000
00:03:11.858 : :00:03:11.858
00:09:45.960 : :00:09:45.960
00:15:51.993 : :00:15:51.993
00:25:57.014 : :00:25:57.014
00:36:51.000 : :00:36:51.000
00:47:53.162 : :00:47:53.162
00:58:18.328 : :00:58:18.328
01:06:33.948 : :01:06:33.948
01:14:31.926 : :01:14:31.926
01:23:30.923 : :01:23:30.923
01:32:29.961 : :01:32:29.961

[/mediainfo]

TRACKERSEEDLEECHDOWNLOADED
udp://9.rarbg.me:2710/announce
udp://11.rarbg.me:80/announce
udp://10.rarbg.me:80/announce
udp://12.rarbg.me:80/announce
udp://9.rarbg.com:2710/announce
udp://open.demonii.com:1337/announce
udp://tracker.publicbt.com:80/announce
udp://tracker.istole.it:80/announce
udp://tracker.openbittorrent.com:80/announce
udp://tracker.istole.it:6969/announce
http://tracker.istole.it/announce
http://tracker.trackerfix.com/announce
udp://tracker.ccc.de:80/announce
http://tracker.thepiratebay.org/announce
udp://tracker-ccc.de:6969/announce
FILESIZE
RARBG.com.txt31 B
back.to.the.sea.2012.1080p.bluray.x264-usury.mkv4.37 GB
back.to.the.sea.2012.1080p.bluray.x264-usury.nfo226 B

Related results

Date Title Size Files Seeds Leechs Category Health
Video(Movies) 3.31 GB 4 2014-07-20 1 0 25%
Video(Movies) 7.71 GB 4 2014-12-02 1 1 25%
Video(Movies) 3.33 GB 4 2014-12-12 2 0 100%
Video(Movies) 3.28 GB 3 2015-01-03 1 0 25%
Video(Movies) 5.46 GB 3 2015-01-03 0 1 25%

Login

Account deleting

Are you sure you want to delete your account?

WARNING: This action cannot be undone!!!