Login / Register
1080p

Cats.Eye.1985.1080p.BluRay.X264-AMIABLE

Category: Video
Type: Movies
Movie Title: 24: The Movie
Detected quality: 1080p
Release date: 1985-04-11
Cast: Jon Cassar,Adam Kane,Omar Madha,Robert Cochran,Joel Surnow,David Fury,Manny Coto,Evan Katz,Sang Kyu Kim,Patrick Somerville,Kiefer Sutherland,Kim Raver,Yvonne Strahovski,Tate Donovan,Mary Lynn Rajskub,William Devane,Gbenga Akinnagbe,Giles Matthe
Genre: Action, Drama, Mystery
External Links: IMDB
Director: Jon Cassar
Producer: Kiefer Sutherland
Writer: Tony Basgallop
Duration: 60
IMDB rating: 6.2 (14,638 votes)
Summary: Jack Bauer comes out of hiding in London to head off a massive terrorist attack while being hunted down by American forces dispatched by President James Heller.
Votes
Good: 0
Bad: 0
GoodBad
0
Seeders
1
Leechers

Added: 2014-07-14

Size: 6.56 GB

Health: 25%

Hash (Base16): 5FAFB0BBE29C5450EA6B46FA998047D2E9CC6173

Hash (Base32): L6X3BO7CTRKFB2TLI35JTACH2LU4YYLT

DownloadBookmark
^

Cats.Eye.1985.1080p.BluRay.X264-AMIABLE

image

Title: Cat's Eye (1985)
IMDB Rating: 6.0/10
Genres: Comedy , Horror , Thriller
Actors: Drew Barrymore , James Woods , Alan King , Kenneth McMillan , Robert Hays , Candy Clark , James Naughton , Tony Munafo , Court Miller , Russell Horton , Patricia Benson , Mary D'Arcy , James Rebhorn , Jack Dillon , Susan Hawes
Runtime: 94
Year: 1985
Plot:
Three horror-thriller tales revolve around a mysterious stray cat which is attempting to find a little girl in trouble. In "Quitters| Inc.": the cat is picked up by
a shady New York "doctor" who uses experimental techniques to get people to quit smoking. His latest client is a man named Morrison| who learns he'll suffer some
terrible consequences if he tries to cheat. In "The Ledge": the cat is picked up by Cressner| a shady Atlantic City millionaire who forces tennis pro Norris (his
wife's lover)| to walk a narrow ledge around his high-rise penthouse apartment. In "The General": the cat arrives in Wilmington| North Carolina| where it is found by
Amanda| the young girl it has been sent to protect. What she needs protection from is a tiny| evil troll who lives behind the skirting board in her bedroom.
[mediainfo]

Video
ID : 1
Format : AVC
Format/Info : Advanced Video Codec
Format profile : [email protected]
Format settings, CABAC : Yes
Format settings, ReFrames : 5 frames
Codec ID : V_MPEG4/ISO/AVC
Duration : 1h 34mn
Bit rate : 9 730 Kbps
Width : 1 920 pixels
Height : 824 pixels
Display aspect ratio : 2.35:1
Frame rate mode : Constant
Frame rate : 23.976 fps
Color space : YUV
Chroma subsampling : 4:2:0
Bit depth : 8 bits
Scan type : Progressive
Bits/(Pixel*Frame) : 0.257
Stream size : 6.30 GiB (96%)
Writing library : x264 core 142 r2431 ac76440
Encoding settings : cabac=1 / ref=5 / deblock=1:-3:-3 / analyse=0x3:0x113 / me=umh / subme=8 / psy=1 / psy_rd=1.00:0.00 / mixed_ref=1 / me_range=16 / chroma_me=1 / trellis=1 / 8x8dct=1 / cqm=0 / deadzone=21,11 / fast_pskip=1 / chroma_qp_offset=-2 / threads=18 / lookahead_threads=3 / sliced_threads=0 / nr=0 / decimate=1 / interlaced=0 / bluray_compat=0 / constrained_intra=0 / bframes=3 / b_pyramid=2 / b_adapt=2 / b_bias=0 / direct=3 / weightb=1 / open_gop=0 / weightp=2 / keyint=240 / keyint_min=24 / scenecut=40 / intra_refresh=0 / rc_lookahead=50 / rc=2pass / mbtree=1 / bitrate=9730 / ratetol=1.0 / qcomp=0.60 / qpmin=0 / qpmax=69 / qpstep=4 / cplxblur=20.0 / qblur=0.5 / ip_ratio=1.40 / aq=1:1.00
Language : English
Default : Yes
Forced : No

Audio
ID : 2
Format : AC-3
Format/Info : Audio Coding 3
Mode extension : CM (complete main)
Format settings, Endianness : Big
Codec ID : A_AC3
Duration : 1h 34mn
Bit rate mode : Constant
Bit rate : 192 Kbps
Channel(s) : 2 channels
Channel positions : Front: L R
Sampling rate : 48.0 KHz
Bit depth : 16 bits
Compression mode : Lossy
Stream size : 130 MiB (2%)
Language : English
Default : Yes
Forced : No

Menu
00:00:00.000 : en:00:00:00.000
00:00:00.375 : en:00:00:00.375
00:15:17.917 : en:00:15:17.917
00:27:08.418 : en:00:27:08.418
00:39:09.013 : en:00:39:09.013
00:51:53.444 : en:00:51:53.444
01:04:28.531 : en:01:04:28.531
01:16:59.281 : en:01:16:59.281
01:27:33.248 : en:01:27:33.248

[/mediainfo]

TRACKERSEEDLEECHDOWNLOADED
udp://9.rarbg.me:2710/announce
udp://11.rarbg.me:80/announce
udp://10.rarbg.me:80/announce
udp://12.rarbg.me:80/announce
udp://9.rarbg.com:2710/announce
udp://open.demonii.com:1337/announce
udp://tracker.publicbt.com:80/announce
udp://tracker.istole.it:80/announce
udp://tracker.openbittorrent.com:80/announce
udp://tracker.istole.it:6969/announce
http://tracker.istole.it/announce
http://tracker.trackerfix.com/announce
udp://tracker.ccc.de:80/announce
http://tracker.thepiratebay.org/announce
udp://tracker-ccc.de:6969/announce
FILESIZE
Cats.Eye.1985.1080p.BluRay.X264-AMIABLE.mkv6.56 GB
RARBG.com.txt31 B
cats.eye.1985.1080p.bluray.x264-amiable.nfo1.44 KB

Related results

Date Title Size Files Seeds Leechs Category Health
Video(Movies) 7.65 GB 3 2014-03-12 4 3 100%
Video(Movies) 4.37 GB 3 2014-05-24 1 0 25%
Video(Movies) 6.55 GB 3 2014-01-26 0 4 25%
Video(Movies) 3.3 GB 5 2014-07-26 4 2 25%
Video(Movies) 6.59 GB 5 2014-07-26 1 0 25%
Video(Movies) 7.73 GB 6 2014-12-16 1 1 25%
Video(Movies) 6.56 GB 6 2015-01-12 1 0 25%
Video(Movies) 5.52 GB 8 2015-02-05 1 0 25%
Video(Movies) 8.76 GB 6 2015-02-06 1 0 25%

Login

Account deleting

Are you sure you want to delete your account?

WARNING: This action cannot be undone!!!