Login / Register

WWE.Monday.Night.RAW.2014.07.14.720p.HDTV.x264-KYR[rartv]

Category: Video
Type: TV
Episode Title: Main Event: Dean Ambrose, John Cena & Roman Reigns vs. Kane, Randy Orton & Seth Rollins (Richmond, VA) LIVE
Release date: 2014-07-13
Genre: Action, Drama, Family, Sport, Soaps
External Links: IMDB
Original run: 1993-01-10
IMDB rating: 7.9 (616 votes)
Summary: Monday Night Raw is the flagship weekly broadcast for World Wrestling Entertainment. Premiering in 1993, Raw survived years of battles with World Championship Wrestling's Monday Nitro to become the leading wrestling program worldwide. Raw has aired over 1000 original episodes, and expanded to three hours a week in 2012.
Votes
Good: 0
Bad: 0
GoodBad
1
Seeders
0
Leechers

Added: 2014-07-15

Size: 3.89 GB

Health: 25%

Hash (Base16): 1654F76EB2B6F7518F55902213E4F0B39A363EA7

Hash (Base32): CZKPO3VSW33VDD2VSARBHZHQWONDMPVH

DownloadBookmark
^

WWE.Monday.Night.RAW.2014.07.14.720p.HDTV.x264-KYR[rartv]

image
[mediainfo]

Video
ID : 1
Format : AVC
Format/Info : Advanced Video Codec
Format profile : High@L4.1
Format settings, CABAC : Yes
Format settings, ReFrames : 5 frames
Codec ID : V_MPEG4/ISO/AVC
Duration : 2h 12mn
Bit rate : 3 703 Kbps
Width : 1 280 pixels
Height : 720 pixels
Display aspect ratio : 16:9
Frame rate mode : Constant
Frame rate : 29.970 fps
Color space : YUV
Chroma subsampling : 4:2:0
Bit depth : 8 bits
Scan type : Progressive
Bits/(Pixel*Frame) : 0.134
Stream size : 3.42 GiB (89%)
Writing library : x264 core 142 r2431 ac76440
Encoding settings : cabac=1 / ref=5 / deblock=1:0:0 / analyse=0x3:0x113 / me=umh / subme=8 / psy=1 / psy_rd=1.00:0.00 / mixed_ref=1 / me_range=16 / chroma_me=1 / trellis=1 / 8x8dct=1 / cqm=0 / deadzone=21,11 / fast_pskip=1 / chroma_qp_offset=-2 / threads=18 / lookahead_threads=3 / sliced_threads=0 / nr=0 / decimate=1 / interlaced=0 / bluray_compat=0 / constrained_intra=0 / bframes=3 / b_pyramid=2 / b_adapt=2 / b_bias=0 / direct=3 / weightb=1 / open_gop=0 / weightp=2 / keyint=250 / keyint_min=25 / scenecut=40 / intra_refresh=0 / rc_lookahead=50 / rc=crf / mbtree=1 / crf=23.0 / qcomp=0.60 / qpmin=0 / qpmax=69 / qpstep=4 / ip_ratio=1.40 / aq=1:1.00
Language : English
Default : Yes
Forced : No
Matrix coefficients : BT.709

Audio
ID : 2
Format : AC-3
Format/Info : Audio Coding 3
Mode extension : CM (complete main)
Format settings, Endianness : Big
Codec ID : A_AC3
Duration : 2h 12mn
Bit rate mode : Constant
Bit rate : 384 Kbps
Channel(s) : 6 channels
Channel positions : Front: L C R, Side: L R, LFE
Sampling rate : 48.0 KHz
Bit depth : 16 bits
Compression mode : Lossy
Delay relative to video : 40ms
Stream size : 363 MiB (9%)
Default : Yes
Forced : No

[/mediainfo]

TRACKERSEEDLEECHDOWNLOADED
udp://9.rarbg.me:2710/announce
udp://11.rarbg.me:80/announce
udp://10.rarbg.me:80/announce
udp://12.rarbg.me:80/announce
udp://9.rarbg.com:2710/announce
udp://open.demonii.com:1337/announce
udp://tracker.publicbt.com:80/announce
udp://tracker.istole.it:80/announce
udp://tracker.openbittorrent.com:80/announce
udp://tracker.istole.it:6969/announce
http://tracker.trackerfix.com/announce
udp://tracker.ccc.de:80/announce
http://tracker.thepiratebay.org/announce
udp://tracker-ccc.de:6969/announce
FILESIZE
RARBG.com.txt31 B
Sample/wwe.monday.night.raw.2014.07.14.720p.hdtv.x264-kyr.sample.mkv37.36 MB
wwe.monday.night.raw.2014.07.14.720p.hdtv.x264-kyr.mkv3.85 GB
wwe.monday.night.raw.2014.07.14.720p.hdtv.x264-kyr.nfo10.03 KB

Related results

Date Title Size Files Seeds Leechs Category Health
Video(TV) 1.33 GB 3 2014-07-07 1 0 25%
Video(TV) 1.29 GB 3 2014-06-23 1 0 25%
Video(TV) 1.34 GB 3 2014-06-16 1 0 25%
Video(TV) 3.93 GB 3 2014-06-09 1 0 25%
Video(TV) 1.4 GB 3 2014-04-07 0 1 25%
Video(TV) 4.08 GB 3 2014-03-31 1 0 25%
Video(TV) 1.28 GB 3 2014-03-24 0 1 25%
Video(TV) 1.3 GB 3 2014-07-21 0 1 25%
Video(TV) 4.2 GB 4 2014-07-21 1 0 25%
Video(TV) 1.21 GB 3 2014-12-01 1 1 25%

Login

Account deleting

Are you sure you want to delete your account?

WARNING: This action cannot be undone!!!