Login / Register

The.Hooligan.Factory.2014.1080p.WEB-DL.DD5.1.H264-RARBG

Category: Video
Type: Movies
Movie Title: The Hooligan Factory
Cast: Keith-Lee Castle,Shane Hart,Norman Buckland,Leon Corbin,Craig Izzard,Angelo Soteriou,Grant Huggair,Louis Taylor,Glenn Webster,Richard Woodward,Jude Campbell,Danny Dyer,Dexter Fletcher,Josef Altin,Craig Fairbrass,Jamie Foreman,Jamie Foreman,Ray Fearon
Genre: Comedy
External Links: IMDB
Director: Nick Nevern
Producers: Nick Nevern,Jason Maza,Andy Mayson,Robert Jones,Marshall Leviten,Michael Lindley,Wayne Marc Godfrey,Will Clarke,Andy Mayson,Arnaud Lannic,Mike Runagall,Marshal Leviten,Lottie Abrahams,David Gilbery,Christophe Lannic
Writers: Nick Nevern,Michael Lindley
Duration: 90
Summary: Danny wants something more. Expelled from school and living in his grandfathers flat, he longs to live up to the image of his estranged father Danny Senior. Sent to prison for force feeding a judge his own wig Danny Senior was a legend and Danny is looking for a way to emulate his father's achievements and rise to be "top boy". Meanwhile in Wormwood Scrubs prison legendary football hooligan Dex is about to be released. Dex is on a quest of his own, one of vengeance against his nemesis and rival firm leader Yeti. But when Danny and Dex's paths cross they embark on a journey as old as hooliganism itself. Dex, Danny and The Hooligan Factory travel the length of the country on a mission to re-establish their firm's glory days. However, the police are closing in and we get a sense that the Hooligan Factory's best days may be behind them, but with Danny on their side, and Dex finding his old form who knows where this may lead. After all... Its a funny old game.
Votes
Good: 0
Bad: 0
GoodBad
0
Seeders
2
Leechers

Added: 2014-07-11

Size: 2.58 GB

Health: 25%

Hash (Base16): C85B2AC0696272082EA517C619577833F8D74AF3

Hash (Base32): ZBNSVQDJMJZAQLVFC7DBSV3YGP4NOSXT

DownloadBookmark
^

The.Hooligan.Factory.2014.1080p.WEB-DL.DD5.1.H264-RARBG

image

Title: The Hooligan Factory (2014)
IMDB Rating: 7.9/10
Genres: Comedy
Actors: Jason Maza , Nick Nevern , Tom Burke , Ray Fearon , Steven O'Donnell , Morgan Watkins , Josef Altin , Ronnie Fox , Leo Gregory , Keith-Lee Castle , Lorraine Stanley , Craig Fairbrass , Neil Large , Juliet Oldfield , Billy Matthews
Runtime: 90
Year: 2014
Plot:
Danny wants something more. Expelled from school and living in his grandfathers flat| he longs to live up to the image of his estranged father Danny Senior. Sent to
prison for force feeding a judge his own wig Danny Senior was a legend and Danny is looking for a way to emulate his father's achievements and rise to be "top boy".
Meanwhile in Wormwood Scrubs prison legendary football hooligan Dex is about to be released. Dex is on a quest of his own| one of vengeance against his nemesis and
rival firm leader Yeti. But when Danny and Dex's paths cross they embark on a journey as old as hooliganism itself. Dex| Danny and The Hooligan Factory travel the
length of the country on a mission to re-establish their firm's glory days. However| the police are closing in and we get a sense that the Hooligan Factory's best
days may be behind them| but with Danny on their side| and Dex finding his old form who knows where this may lead. After all... Its a funny old game.


image
image
image
image
image
image
image
image
image
image
image
image



[mediainfo]
Video
ID : 1
Format : AVC
Format/Info : Advanced Video Codec
Format profile : High@L4.0
Format settings, CABAC : Yes
Format settings, ReFrames : 5 frames
Codec ID : V_MPEG4/ISO/AVC
Duration : 1h 29mn
Bit rate : 3 644 Kbps
Width : 1 912 pixels
Height : 810 pixels
Display aspect ratio : 2.35:1
Frame rate mode : Constant
Frame rate : 23.976 fps
Color space : YUV
Chroma subsampling : 4:2:0
Bit depth : 8 bits
Scan type : Progressive
Bits/(Pixel*Frame) : 0.098
Stream size : 2.29 GiB (89%)
Title : The.Hooligan.Factory.2014.1080p.WEB-DL.DD5.1.H264-RARBG
Language : English
Default : Yes
Forced : No
Color primaries : BT.709
Transfer characteristics : BT.709
Matrix coefficients : BT.709

Audio
ID : 2
Format : AC-3
Format/Info : Audio Coding 3
Mode extension : CM (complete main)
Format settings, Endianness : Big
Codec ID : A_AC3
Duration : 1h 29mn
Bit rate mode : Constant
Bit rate : 384 Kbps
Channel(s) : 6 channels
Channel positions : Front: L C R, Side: L R, LFE
Sampling rate : 48.0 KHz
Bit depth : 16 bits
Compression mode : Lossy
Stream size : 247 MiB (9%)
Title : The.Hooligan.Factory.2014.1080p.WEB-DL.DD5.1.H264-RARBG
Language : English
Default : Yes
Forced : No

Menu
00:00:00.000 : en:Chapter 1
00:06:05.000 : en:Chapter 2
00:07:51.000 : en:Chapter 3
00:12:26.000 : en:Chapter 4
00:15:07.000 : en:Chapter 5
00:19:02.000 : en:Chapter 6
00:23:21.000 : en:Chapter 7
00:35:09.000 : en:Chapter 8
00:40:24.000 : en:Chapter 9
00:48:34.000 : en:Chapter 10
00:53:36.000 : en:Chapter 11
00:58:07.000 : en:Chapter 12
01:03:54.000 : en:Chapter 13
01:10:12.000 : en:Chapter 14
01:14:46.000 : en:Chapter 15
01:22:13.000 : en:Chapter 16
01:26:23.000 : en:Chapter 17



[/mediainfo]

TRACKERSEEDLEECHDOWNLOADED
udp://tracker.coppersurfer.tk:6969/announce
udp://9.rarbg.me:2710/announce
udp://11.rarbg.me:80/announce
udp://10.rarbg.me:80/announce
udp://12.rarbg.me:80/announce
udp://9.rarbg.com:2710/announce
udp://open.demonii.com:1337/announce
udp://tracker.publicbt.com:80/announce
udp://tracker.istole.it:80/announce
udp://tracker.openbittorrent.com:80/announce
udp://tracker.istole.it:6969/announce
http://tracker.istole.it/announce
http://tracker.trackerfix.com/announce
udp://tracker.ccc.de:80/announce
http://tracker.thepiratebay.org/announce
udp://tracker-ccc.de:6969/announce
FILESIZE
The.Hooligan.Factory.2014.1080p.WEB-DL.DD5.1.H264-RARBG.mkv2.58 GB
RARBG.com.mp4992.93 KB
The.Hooligan.Factory.2014.1080p.WEB-DL.DD5.1.H264-RARBG.nfo4.49 KB
RARBG.com.txt31 B

Related results

Date Title Size Files Seeds Leechs Category Health
Video(Movies) 2.44 GB 4 2014-07-11 0 1 25%
Video(Movies) 1.13 GB 4 2014-07-10 0 1 25%
Video(Movies) 2.51 GB 4 2014-07-10 0 3 25%
Video(Movies) 1.25 GB 4 2014-07-10 0 1 25%

Login

Account deleting

Are you sure you want to delete your account?

WARNING: This action cannot be undone!!!