Login / Register
1080p

The.Zero.Theorem.2013.1080p.WEB-DL.DD5.1.H264-RARBG

Category: Video
Type: Movies
Language: English
Subtitles: English
Movie Title: The Zero Theorem
Detected quality: 1080p
Release date: 2014-09-18
Cast: Christoph Waltz,Mélanie Thierry,David Thewlis,Lucas Hedges,Matt Damon,Tilda Swinton,Margarita Doyle,Madison Lygo,Peter Stormare,Gwendoline Christie,Sanjeev Bhaskar,Ben Whishaw,Emil Hostina,Lily Cole,Ray Cooper,Rupert Friend,Dan Astileanu,Ingrid Bisu
Genre: Drama, Fantasy, Sci-Fi
External Links: IMDB
Director: Terry Gilliam
Producers: Mark Bakunas,Chris Curling,Christoph Waltz,Amy Gilliam,Dean Zanuck,Phil Robertson,Nicolas Chartier,Andreea Stanculeanu,Patrick Newall,Patricia Poienaru,Zev Foreman,Dominic Rustam
Writers: Terry Gilliam,Pat Rushin
Duration: 107
IMDB rating: 6.2 (19,870 votes)
Summary: A computer hacker whose goal is to discover the reason for human existence continually finds his work interrupted thanks to the Management; namely, they send a teenager and lusty love interest to distract him.
Votes
Good: 0
Bad: 0
GoodBad
1
Seeders
1
Leechers

Added: 2014-07-11

Size: 3.81 GB

Health: 25%

Hash (Base16): 451A50C6899600D498A12B6440B895EF150B5E29

Hash (Base32): IUNFBRUJSYANJGFBFNSEBOEV54KQWXRJ

DownloadBookmark
^

The.Zero.Theorem.2013.1080p.WEB-DL.DD5.1.H264-RARBG

image

Title: The Zero Theorem (2013)
IMDB Rating: 6.6/10
Genres: Drama , Fantasy
Actors: Christoph Waltz , Mélanie Thierry , David Thewlis , Lucas Hedges , Matt Damon , Ben Whishaw , Tilda Swinton , Sanjeev Bhaskar , Ingrid Bisu , Margarita Doyle , Naomi Everson , Rupert Friend , Emil Hostina , Tudor Istodor , Madison Lygo
Runtime: 107
Year: 2013
Plot:
A computer hacker whose goal is to discover the reason for human existence continually finds his work interrupted thanks to the Management; namely| they send a
teenager and lusty love interest to distract him.


image
image
image
image
image
image
image
image
image
image
image
image



[mediainfo]
Video
ID : 1
Format : AVC
Format/Info : Advanced Video Codec
Format profile : High@L4.0
Format settings, CABAC : Yes
Format settings, ReFrames : 4 frames
Codec ID : V_MPEG4/ISO/AVC
Duration : 1h 46mn
Bit rate : 4 638 Kbps
Width : 1 816 pixels
Height : 1 034 pixels
Display aspect ratio : 16:9
Frame rate mode : Constant
Frame rate : 23.976 fps
Color space : YUV
Chroma subsampling : 4:2:0
Bit depth : 8 bits
Scan type : Progressive
Bits/(Pixel*Frame) : 0.103
Stream size : 3.45 GiB (91%)
Title : The.Zero.Theorem.2013.1080p.WEB-DL.DD5.1.H264-RARBG
Language : English
Default : Yes
Forced : No
Color primaries : BT.709
Transfer characteristics : BT.709
Matrix coefficients : BT.709

Audio
ID : 2
Format : AC-3
Format/Info : Audio Coding 3
Mode extension : CM (complete main)
Format settings, Endianness : Big
Codec ID : A_AC3
Duration : 1h 46mn
Bit rate mode : Constant
Bit rate : 384 Kbps
Channel(s) : 6 channels
Channel positions : Front: L C R, Side: L R, LFE
Sampling rate : 48.0 KHz
Bit depth : 16 bits
Compression mode : Lossy
Stream size : 292 MiB (7%)
Title : The.Zero.Theorem.2013.1080p.WEB-DL.DD5.1.H264-RARBG
Language : English
Default : Yes
Forced : No

Text
ID : 3
Format : UTF-8
Codec ID : S_TEXT/UTF8
Codec ID/Info : UTF-8 Plain Text
Language : English
Default : Yes
Forced : No

Menu
00:00:00.000 : en:1
00:05:36.000 : en:2
00:12:44.000 : en:3
00:20:39.000 : en:4
00:26:00.000 : en:5
00:34:36.000 : en:6
00:38:34.000 : en:7
00:43:12.000 : en:8
00:47:37.000 : en:9
00:55:47.000 : en:10
01:00:50.000 : en:11
01:05:45.000 : en:12
01:15:41.000 : en:13
01:25:07.000 : en:14
01:32:15.000 : en:15
01:38:49.000 : en:16



[/mediainfo]

TRACKERSEEDLEECHDOWNLOADED
udp://tracker.coppersurfer.tk:6969/announce10316
udp://mgtracker.org:2710/announce
udp://9.rarbg.me:2710/announce
udp://11.rarbg.me:80/announce
udp://10.rarbg.me:80/announce
udp://12.rarbg.me:80/announce
udp://9.rarbg.com:2710/announce
udp://open.demonii.com:1337/announce
udp://tracker.publicbt.com:80/announce
udp://tracker.istole.it:80/announce
udp://tracker.openbittorrent.com:80/announce
udp://tracker.istole.it:6969/announce
http://tracker.istole.it/announce
http://tracker1.wasabii.com.tw:6969/announce
http://tracker.tfile.me/announce
http://tracker.trackerfix.com/announce
http://exodus.desync.com:6969/announce
udp://tracker.ccc.de:80/announce
http://tracker.thepiratebay.org/announce
udp://tracker-ccc.de:6969/announce
FILESIZE
The.Zero.Theorem.2013.1080p.WEB-DL.DD5.1.H264-RARBG.mkv3.81 GB
RARBG.com.mp4992.93 KB
The.Zero.Theorem.2013.1080p.WEB-DL.DD5.1.H264-RARBG.srt113.2 KB
The.Zero.Theorem.2013.1080p.WEB-DL.DD5.1.H264-RARBG.nfo4.66 KB
RARBG.com.txt31 B

Related results

Date Title Size Files Seeds Leechs Category Health
Video(Movies) 3.33 GB 5 2014-07-11 0 1 25%
Video(Movies) 1.34 GB 5 2014-07-10 1 0 25%
Video(Movies) 3.11 GB 5 2014-07-10 0 1 25%
Video(Movies) 1.48 GB 5 2014-07-10 1 0 25%
Video(Movies) 967.68 MB 4 2014-07-20 1 0 25%
Video(Movies) 1.34 GB 6 2014-07-20 1 0 25%
Video(Movies) 1.26 GB 4 2014-07-20 1 0 25%
Video(Movies) 3.33 GB 5 2014-07-14 0 1 25%

Login

Account deleting

Are you sure you want to delete your account?

WARNING: This action cannot be undone!!!