Login / Register

Covert.Affairs.S05E03.PROPER.720p.HDTV.x264-W4F[rartv]

Category: Video
Type: TV
Movie Title: Covert Affairs
Season: 5
Episode: 3
Episode Title: Unseen Power of the Picket Fence
Release date: 2014-07-07
Cast: Lauren Holly,Anna Chlumsky,Peter Gallagher,Peter Stormare,Oded Fehr,Eriq La Salle,Piper Perabo,Julian Acosta,Nick Alachiotis,David Andrews,Yancey Arias,Brad Austin,Shaun Austin-Olsen,Eion Bailey,Liane Balaban,Matt Baram,Milton Barnes,Kate Trotter
Genre: Action, Crime, Drama
External Links: IMDB
Directors: Renny Harlin,Tim Matheson,Jamie Barber,Jamie Barber,Andrew Bernstein,Alex Chapple,Nick Copus,Félix Enríquez Alcalá,J. Miller Tobin,John Fawcett,John Fawcett,Omar Madha,Ken Girotti,Stephen Kay,Rod Hardy,John T. Kretchmer,Elodie Keene,Jonathan Glassner
Producers: Piper Perabo,Hank Chilton,Diego Conejero,James D. Parriott,Stefano Biraghi,Stephen Kay,Sean Ryerson,Jonathan Glassner,Thania St. John,Elan Dassani,Alejandro Levi,Norman Morrill,Erhan Ozogul,Doug Liman,Tamara Becher,B.E. Sharp,Henry Alonso Myers
Writers: Hank Chilton,James D. Parriott,Steve Harper,Thania St. John,Norman Morrill,Tamara Becher,Henry Alonso Myers,Erica Shelton,Stephen Hootstein,Donald Joh,Zak Schwartz,Meredith Lavender,Dana Calvo,Matt Corman,Chris Ord,Matthew Lau,Alex Berger,Brett Conrad
Duration: 60
Original run: 2010-07-12
IMDB rating: 7.4 (19,246 votes)
Summary: A young CIA operative/trainee, Annie Walker, is sent into the field to work for the DPD (Domestic Protection Division). August Anderson is a blind tech operative, and is Walker's guide in her new life in the CIA. Walker's cover story is that she works at the Smithsonian Museum.
Votes
Good: 0
Bad: 0
GoodBad
0
Seeders
2
Leechers

Added: 2014-07-15

Size: 1.42 GB

Health: 25%

Hash (Base16): 195B0B7BEA5CC50DE021190F7C34B8AC73B136DB

Hash (Base32): DFNQW67KLTCQ3YBBDEHXYNFYVRZ3CNW3

DownloadBookmark
^

Covert.Affairs.S05E03.PROPER.720p.HDTV.x264-W4F[rartv]

image
[mediainfo]

Video
ID : 1
Format : AVC
Format/Info : Advanced Video Codec
Format profile : High@L4.1
Format settings, CABAC : Yes
Format settings, ReFrames : 5 frames
Codec ID : V_MPEG4/ISO/AVC
Duration : 42mn 15s
Bit rate : 4 217 Kbps
Width : 1 280 pixels
Height : 720 pixels
Display aspect ratio : 16:9
Frame rate mode : Constant
Frame rate : 23.976 fps
Color space : YUV
Chroma subsampling : 4:2:0
Bit depth : 8 bits
Scan type : Progressive
Bits/(Pixel*Frame) : 0.191
Stream size : 1.24 GiB (90%)
Writing library : x264 core 142 r2431 ac76440
Encoding settings : cabac=1 / ref=5 / deblock=1:0:0 / analyse=0x3:0x113 / me=umh / subme=8 / psy=1 / psy_rd=1.00:0.00 / mixed_ref=1 / me_range=16 / chroma_me=1 / trellis=1 / 8x8dct=1 / cqm=0 / deadzone=21,11 / fast_pskip=1 / chroma_qp_offset=-2 / threads=12 / lookahead_threads=2 / sliced_threads=0 / nr=0 / decimate=1 / interlaced=0 / bluray_compat=0 / constrained_intra=0 / bframes=3 / b_pyramid=2 / b_adapt=2 / b_bias=0 / direct=3 / weightb=1 / open_gop=0 / weightp=2 / keyint=250 / keyint_min=25 / scenecut=40 / intra_refresh=0 / rc_lookahead=50 / rc=crf / mbtree=1 / crf=18.0 / qcomp=0.60 / qpmin=0 / qpmax=69 / qpstep=4 / ip_ratio=1.40 / aq=1:1.00
Language : English
Default : Yes
Forced : No

Audio
ID : 2
Format : AC-3
Format/Info : Audio Coding 3
Mode extension : CM (complete main)
Format settings, Endianness : Big
Codec ID : A_AC3
Duration : 42mn 15s
Bit rate mode : Constant
Bit rate : 384 Kbps
Channel(s) : 6 channels
Channel positions : Front: L C R, Side: L R, LFE
Sampling rate : 48.0 KHz
Bit depth : 16 bits
Compression mode : Lossy
Stream size : 116 MiB (8%)
Language : English
Default : Yes
Forced : No

Text
ID : 3
Format : UTF-8
Codec ID : S_TEXT/UTF8
Codec ID/Info : UTF-8 Plain Text
Language : English
Default : No
Forced : No

[/mediainfo]

TRACKERSEEDLEECHDOWNLOADED
udp://9.rarbg.me:2710/announce
udp://11.rarbg.me:80/announce
udp://10.rarbg.me:80/announce
udp://12.rarbg.me:80/announce
udp://9.rarbg.com:2710/announce
udp://open.demonii.com:1337/announce
udp://tracker.publicbt.com:80/announce
udp://tracker.istole.it:80/announce
udp://tracker.openbittorrent.com:80/announce
udp://tracker.istole.it:6969/announce
http://tracker.istole.it/announce
http://tracker.trackerfix.com/announce
udp://tracker.ccc.de:80/announce
http://tracker.thepiratebay.org/announce
udp://tracker-ccc.de:6969/announce
FILESIZE
RARBG.com.txt31 B
SAMPLE/covert.affairs.s05e03.proper.720p.hdtv.x264-w4f-sample.mkv34.31 MB
covert.affairs.s05e03.proper.720p.hdtv.x264-w4f.mkv1.39 GB
covert.affairs.s05e03.proper.720p.hdtv.x264-w4f.nfo6.42 KB

Related results

Date Title Size Files Seeds Leechs Category Health
Video(TV) 413.11 MB 3 2014-07-14 1 0 25%
Video(TV) 314.9 MB 3 2014-08-19 0 1 25%

Login

Account deleting

Are you sure you want to delete your account?

WARNING: This action cannot be undone!!!