Login / Register
Screener

The Other Woman 2014 DVDSCR XViD AC3-BL4CKP34RL

Category: Video
Type: Movies
Language: English
Movie Title: The Other Woman
Detected quality: Screener
Release date: 2014-04-24
Cast: Kate Upton,Cameron Diaz,Leslie Mann,Nikolaj Coster-Waldau,Taylor Kinney,Nicki Minaj,Don Johnson,Jeanmarie Lally,Uzimann,Nina Barry,Alyshia Ochse,Ashley Cusato,Madison McKinley,Victor Cruz,David Thornton,Tony Joe,Craig Castaldo,Alan Davis,Colin Bannon
Genre: Comedy, Romance
External Links: IMDB
Director: Nick Cassavetes
Producers: Maguy R. Cohen,Julie Yorn,Donald J. Lee Jr.,Chuck Pacheco,Patrick Walmsley
Writer: Melissa Stack
Duration: 109
IMDB rating: 6.0 (69,121 votes)
Summary: After discovering her boyfriend is married, Carly soon meets the wife he's been betraying. And when yet another love affair is discovered, all three women team up to plot revenge on the three-timing S.O.B.
Votes
Good: 0
Bad: 0
GoodBad
0
Seeders
1
Leechers

Added: 2014-07-04

Size: 1.49 GB

Health: 25%

Hash (Base16): 70128DD591B75EEEEDDDF76A7BF13530842667B3

Hash (Base32): OAJI3VMRW5PO53O565VHX4JVGCCCMZ5T

DownloadBookmark
^
image

::::::::::: BL4CKP34RL PRESENTS ::::::::::

:::: The Other Woman 2014 DVDScr XViD AC3 ::::

::Information::

Ripper: J4CKSP4RR0W 
IMDB Rating: 6.6/10
Video Codec: XViD 
Release Date: 3 July 2014
Audio Codec: AC3 
Theatre Date: 25 April 2014
Audio Bitrate: 256 kbps 
Runtime: 1hr 49min 10sec
Subtitles: n/a 
Language: ENGLISH
Resolution: 720x304


DETAILS:

Format: AVI
Format/Info: Audio Video Interleave
File size: 1.47 GiB
Duration: 1h 49mn
Overall bit rate: 1 924 Kbps

Video
ID: 0
Format: MPEG-4 Visual
Format profile: Advanced Simple@L5
Format settings, BVOP: 2
Format settings, QPel: Yes
Format settings, GMC: No warppoints
Format settings, Matrix: Default (H.263)
Muxing mode: Packed bitstream
Codec ID: XVID
Codec ID/Hint: XviD
Duration: 1h 49mn
Bit rate: 1 659 Kbps
Width: 720 pixels
Height: 304 pixels
Display aspect ratio: 2.35:1
Frame rate: 29.970 fps
Color space: YUV
Chroma subsampling: 4:2:0
Bit depth: 8 bits
Compression mode: Lossy
Bits/(Pixel*Frame): 0.253
Stream size: 1.27 GiB (86%)
Writing library: XviD 65

Audio
ID: 1
Format: AC-3
Format/Info: Audio Coding 3
Mode extension: CM (complete main)
Format settings, Endianness: Big
Codec ID: 2000
Duration: 1h 49mn
Bit rate mode: Constant
Bit rate: 256 Kbps
Channel(s): 2 channels
Channel positions: Front: L R
Sampling rate: 48.0 KHz
Bit depth: 16 bits
Compression mode: Lossy
Stream size: 200 MiB (13%)
Alignment: Aligned on interleaves
Interleave, duration: 64 ms (1.92 video frames)
Interleave, preload duration: 192 ms

SOURCES:

VIDEO: ............. G0D ...thanks
AUDIO: ............. G0D ...thanks

::IMDB::

http://www.imdb.com/title/tt2203939/

::Greetz and Respect::

ALL CREDIT Goes to BL4CKP34RL for Encoding and ABG for Distribution.


::More Information::

image

::Screenshots::

image
TRACKERSEEDLEECHDOWNLOADED
udp://tracker.coppersurfer.tk:6969/announce100
udp://9.rarbg.me:2710/announce
udp://11.rarbg.me:80/announce
udp://10.rarbg.me:80/announce
udp://12.rarbg.me:80/announce
udp://9.rarbg.com:2710/announce
udp://open.demonii.com:1337/announce
udp://tracker.publicbt.com:80/announce
udp://tracker.istole.it:80/announce
udp://tracker.openbittorrent.com:80/announce
udp://tracker.istole.it:6969/announce
http://tracker.istole.it/announce
http://tracker.trackerfix.com/announce
udp://exodus.desync.com:6969/announce
http://exodus.desync.com:6969/announce
http://p2p.arenabg.ch:2710/announce
http://p2p.arenabg.com:2710/announce
http://9.rarbg.com:2710/announce
udp://tracker.ccc.de:80/announce
udp://tracker.1337x.org:80/announce
http://tracker.thepiratebay.org/announce
http://castradio.net:6969/announce
http://94.228.192.98/announce
udp://bt.rghost.net:80/announce
udp://castradio.net:6969/announce
FILESIZE
The.Other.Woman.2014.DVDScr.XViD.AC3-BL4CKP34RL.avi1.47 GB
sample.avi19.65 MB

Related results

Date Title Size Files Seeds Leechs Category Health
Video(Movies) 1.73 GB 4 2014-07-03 1 0 25%
Video(Movies) 1.49 GB 5 2014-07-03 2 0 25%
Video(Movies) 1.43 GB 5 2014-07-03 0 1 25%
Video(Movies) 1.71 GB 3 2014-07-03 1 0 25%
Video(Movies) 914.59 MB 4 2014-07-04 1 0 25%
Video(Movies) 1.35 GB 1 2014-07-04 0 1 25%
Video(Movies) 1.49 GB 4 2014-07-03 1 0 25%

Login

Account deleting

Are you sure you want to delete your account?

WARNING: This action cannot be undone!!!