Login / Register
1080p

Sin.City.2005.EXTENDED.1080p.BluRay.x264.DTS-RARBG

Category: Video
Type: Movies
Language: English
Movie Title: Sin City
Detected quality: 1080p
Release date: 2005-03-27
Cast: Bruce Willis,Rutger Hauer,Michael Madsen,Mickey Rourke,Elijah Wood,Powers Boothe,Benicio Del Toro,Carla Gugino,Josh Hartnett,Robert Rodriguez,Nick Stahl,Michael Clarke Duncan,Jessica Alba,Brittany Murphy,Marley Shelton,Alexis Bledel,Jude Ciccolella
Genre: Crime, Drama, Thriller
External Links: IMDB
Directors: Quentin Tarantino,Robert Rodriguez,Frank Miller
Producers: Harvey Weinstein,Elizabeth Avellan,Bob Weinstein,Bill Scott
Writer: Frank Miller
Duration: 124
IMDB rating: 8.3 (328,653 votes)
Summary: Four tales of crime adapted from Frank Miller's popular comics, focusing around a muscular brute who's looking for the person responsible for the death of his beloved Goldie, a man fed up with Sin City's corrupt law enforcement who takes the law into his own hands after a horrible mistake, a cop who risks his life to protect a girl from a deformed pedophile, and a hitman looking to make a little cash.
Votes
Good: 0
Bad: 0
GoodBad
0
Seeders
1
Leechers

Added: 2014-07-14

Size: 10.91 GB

Health: 25%

Hash (Base16): AFF1DA035A4BAD1EF2F76C968467C4296B568295

Hash (Base32): V7Y5UA22JOWR54XXNSLIIZ6EFFVVNAUV

DownloadBookmark
^

Sin.City.2005.EXTENDED.1080p.BluRay.x264.DTS-RARBG

image

Title: Sin City (2005)
IMDB Rating: 8.2/10
Genres: Crime , Thriller
Actors: Jessica Alba , Devon Aoki , Alexis Bledel , Powers Boothe , Cara D. Briggs , Jude Ciccolella , Jeffrey J. Dashnaw , Rosario Dawson , Jesse De Luna , Benicio Del Toro , Jason Douglas , Michael Clarke Duncan , Tommy Flanagan , Christina Frankenfield , Rick Gomez
Runtime: 124
Year: 2005
Plot:
Four tales of crime adapted from Frank Miller's popular comics| focusing around a muscular brute who's looking for the person responsible for the death of his
beloved Goldie| a man fed up with Sin City's corrupt law enforcement who takes the law into his own hands after a horrible mistake| a cop who risks his life to
protect a girl from a deformed pedophile| and a hitman looking to make a little cash.


Sin.City.2005.EXTENDED.1080p.BluRay.x264.DTS-RARBG

http://www.imdb.com/title/tt0401792/

Screens:
image
image
image
image
image
image
image

Info:

[mediainfo]

Video
ID : 1
Format : AVC
Format/Info : Advanced Video Codec
Format profile : High@L4.1
Format settings, CABAC : Yes
Format settings, ReFrames : 4 frames
Codec ID : V_MPEG4/ISO/AVC
Duration : 2h 21mn
Bit rate : 9 506 Kbps
Width : 1 920 pixels
Height : 1 040 pixels
Display aspect ratio : 1.85:1
Frame rate mode : Constant
Frame rate : 23.976 fps
Color space : YUV
Chroma subsampling : 4:2:0
Bit depth : 8 bits
Scan type : Progressive
Bits/(Pixel*Frame) : 0.199
Stream size : 9.20 GiB (84%)
Title : Sin.City.2005.EXTENDED.1080p.BluRay.x264.DTS-RARBG
Writing library : x264 core 67 r1134M b8808bf
Language : English
Default : Yes
Forced : No

Audio
ID : 2
Format : DTS
Format/Info : Digital Theater Systems
Mode : 16
Format settings, Endianness : Big
Codec ID : A_DTS
Duration : 2h 21mn
Bit rate mode : Constant
Bit rate : 1 509 Kbps
Channel(s) : 6 channels
Channel positions : Front: L C R, Side: L R, LFE
Sampling rate : 48.0 KHz
Bit depth : 24 bits
Compression mode : Lossy
Stream size : 1.49 GiB (14%)
Title : Sin.City.2005.EXTENDED.1080p.BluRay.x264.DTS-RARBG
Language : English
Default : Yes
Forced : No


[/mediainfo]

Notes:
Greetz to everyone :)

TRACKERSEEDLEECHDOWNLOADED
udp://tracker.coppersurfer.tk:6969/announce0177
udp://9.rarbg.me:2710/announce
udp://11.rarbg.me:80/announce
udp://10.rarbg.me:80/announce
udp://12.rarbg.me:80/announce
udp://9.rarbg.com:2710/announce
udp://open.demonii.com:1337/announce
udp://tracker.publicbt.com:80/announce
udp://tracker.istole.it:80/announce
udp://tracker.openbittorrent.com:80/announce
udp://tracker.istole.it:6969/announce
http://tracker.istole.it/announce
http://bt.careland.com.cn:6969/announce
http://bttracker.crunchbanglinux.org:6969/announce
http://tracker.trackerfix.com/announce
http://9.rarbg.com:2710/announce
udp://tracker.ccc.de:80/announce
http://tracker.thepiratebay.org/announce
http://explodie.org:6969/announce
http://torrent.gresille.org/announce
udp://tracker-ccc.de:6969/announce
http://www.les-renseignements-genereux.org:80/announce
FILESIZE
Sin.City.2005.EXTENDED.1080p.BluRay.x264.DTS-RARBG.mkv10.91 GB
RARBG.com.mp4992.93 KB
Sin.City.2005.EXTENDED.1080p.BluRay.x264.DTS-RARBG.nfo2.91 KB
RARBG.com.txt31 B

Related results

Date Title Size Files Seeds Leechs Category Health
Video(Movies) 17.44 GB 4 2014-05-12 1 1 25%
Video(Movies) 9.13 GB 4 2014-05-12 0 1 25%
Video(Movies) 6.08 GB 4 2014-03-12 0 1 25%
Video(Movies) 2.7 GB 4 2014-07-14 1 0 25%
Video(Movies) 1.68 GB 4 2014-07-14 0 1 25%
Video(Movies) 2.01 GB 5 2014-12-07 1 0 25%
Video(Movies) 1.28 GB 5 2014-12-07 1 0 25%
Video(Movies) 2.34 GB 5 2014-12-17 0 1 25%

Login

Account deleting

Are you sure you want to delete your account?

WARNING: This action cannot be undone!!!