Login / Register
720p

Sin.City.2005.EXTENDED.720p.BluRay.x264.DTS-RARBG

Category: Video
Type: Movies
Language: English
Movie Title: Sin City
Detected quality: 720p
Release date: 2005-03-27
Cast: Bruce Willis,Rutger Hauer,Michael Madsen,Mickey Rourke,Elijah Wood,Powers Boothe,Benicio Del Toro,Carla Gugino,Josh Hartnett,Robert Rodriguez,Nick Stahl,Michael Clarke Duncan,Jessica Alba,Brittany Murphy,Marley Shelton,Alexis Bledel,Jude Ciccolella
Genre: Crime, Drama, Thriller
External Links: IMDB
Directors: Quentin Tarantino,Robert Rodriguez,Frank Miller
Producers: Harvey Weinstein,Elizabeth Avellan,Bob Weinstein,Bill Scott
Writer: Frank Miller
Duration: 124
IMDB rating: 8.3 (328,653 votes)
Summary: Four tales of crime adapted from Frank Miller's popular comics, focusing around a muscular brute who's looking for the person responsible for the death of his beloved Goldie, a man fed up with Sin City's corrupt law enforcement who takes the law into his own hands after a horrible mistake, a cop who risks his life to protect a girl from a deformed pedophile, and a hitman looking to make a little cash.
Votes
Good: 0
Bad: 0
GoodBad
0
Seeders
2
Leechers

Added: 2014-07-14

Size: 6.55 GB

Health: 25%

Hash (Base16): 3D1439F3B5A77133BDC1D67A3BCE3B17D24D7E60

Hash (Base32): HUKDT45VU5YTHPOB2Z5DXTR3C7JE27TA

DownloadBookmark
^

Sin.City.2005.EXTENDED.720p.BluRay.x264.DTS-RARBG

image

Title: Sin City (2005)
IMDB Rating: 8.2/10
Genres: Crime , Thriller
Actors: Jessica Alba , Devon Aoki , Alexis Bledel , Powers Boothe , Cara D. Briggs , Jude Ciccolella , Jeffrey J. Dashnaw , Rosario Dawson , Jesse De Luna , Benicio Del Toro , Jason Douglas , Michael Clarke Duncan , Tommy Flanagan , Christina Frankenfield , Rick Gomez
Runtime: 124
Year: 2005
Plot:
Four tales of crime adapted from Frank Miller's popular comics| focusing around a muscular brute who's looking for the person responsible for the death of his
beloved Goldie| a man fed up with Sin City's corrupt law enforcement who takes the law into his own hands after a horrible mistake| a cop who risks his life to
protect a girl from a deformed pedophile| and a hitman looking to make a little cash.


Sin.City.2005.EXTENDED.720p.BluRay.x264.DTS-RARBG

http://www.imdb.com/title/tt0401792/

Screens:
image
image
image
image
image
image

Info:

[mediainfo]

Video
ID : 1
Format : AVC
Format/Info : Advanced Video Codec
Format profile : High@L4.1
Format settings, CABAC : Yes
Format settings, ReFrames : 8 frames
Codec ID : V_MPEG4/ISO/AVC
Duration : 2h 21mn
Bit rate : 5 100 Kbps
Width : 1 280 pixels
Height : 694 pixels
Display aspect ratio : 1.85:1
Frame rate mode : Constant
Frame rate : 23.976 fps
Color space : YUV
Chroma subsampling : 4:2:0
Bit depth : 8 bits
Scan type : Progressive
Bits/(Pixel*Frame) : 0.239
Stream size : 4.92 GiB (75%)
Title : Sin.City.2005.EXTENDED.720p.BluRay.x264.DTS-RARBG
Writing library : x264 core 67 r1125M 10d6ef0
Default : Yes
Forced : No

Audio
ID : 2
Format : DTS
Format/Info : Digital Theater Systems
Mode : 16
Format settings, Endianness : Big
Codec ID : A_DTS
Duration : 2h 21mn
Bit rate mode : Constant
Bit rate : 1 509 Kbps
Channel(s) : 6 channels
Channel positions : Front: L C R, Side: L R, LFE
Sampling rate : 48.0 KHz
Bit depth : 24 bits
Compression mode : Lossy
Stream size : 1.49 GiB (23%)
Title : Sin.City.2005.EXTENDED.720p.BluRay.x264.DTS-RARBG
Language : English
Default : Yes
Forced : No

[/mediainfo]

Notes:
Greetz to everyone :)

TRACKERSEEDLEECHDOWNLOADED
udp://tracker.coppersurfer.tk:6969/announce
udp://9.rarbg.me:2710/announce
udp://11.rarbg.me:80/announce
udp://10.rarbg.me:80/announce
udp://12.rarbg.me:80/announce
udp://9.rarbg.com:2710/announce
udp://open.demonii.com:1337/announce
udp://tracker.publicbt.com:80/announce
udp://tracker.istole.it:80/announce
udp://tracker.openbittorrent.com:80/announce
udp://tracker.istole.it:6969/announce
http://tracker.istole.it/announce
http://tracker.trackerfix.com/announce
udp://tracker.ccc.de:80/announce
http://tracker.thepiratebay.org/announce
udp://tracker-ccc.de:6969/announce
FILESIZE
Sin.City.2005.EXTENDED.720p.BluRay.x264.DTS-RARBG.mkv6.55 GB
RARBG.com.mp4992.93 KB
Sin.City.2005.EXTENDED.720p.BluRay.x264.DTS-RARBG.nfo2.85 KB
RARBG.com.txt31 B

Related results

Date Title Size Files Seeds Leechs Category Health
Video(Movies) 2.7 GB 4 2014-07-14 3 0 100%
Video(Movies) 1.68 GB 4 2014-07-14 0 1 25%
Video(Movies) 1.93 GB 4 2014-08-02 1 0 25%
Video(Movies) 3.4 GB 5 2014-08-10 1 0 25%
Video(Movies) 2.5 GB 5 2014-08-14 0 1 25%
Video(Movies) 2.01 GB 5 2014-12-07 1 0 25%
Video(Movies) 26.56 GB 4 2015-02-13 0 1 25%
Video(Movies) 10.41 GB 4 2015-02-13 0 1 25%

Login

Account deleting

Are you sure you want to delete your account?

WARNING: This action cannot be undone!!!