Login / Register
720p

The.Trials.of.Cate.McCall.2013.720p.BluRay.x264-WiKi

Category: Video
Type: Movies
Movie Title: The Trials of Cate McCall
Detected quality: 720p
Release date: 2013-11-27
Cast: Kate Beckinsale,Bethany Brooke Anderson,Clancy Brown,James Cromwell,Dale Dickey,Taye Diggs,Kathy Baker,Nick Nolte,Mark Pellegrino,Lyle Kanouse,Michael Hyatt,Lily Knight,Amy Benedict,Jay Thomas,Isaiah Washington,Johnny Sneed,Omar Leyva,Joseph Lyle Taylor
Genre: Drama
External Links: IMDB
Director: Karen Moncrieff
Producers: Marc Bienstock,Joe Dain,Barbara Fiorentino,Karen Moncrieff,Jenny Hinkey,Eric Karten,Peter Schafer,Jim Klock
Writer: Karen Moncrieff
Duration: 89
IMDB rating: 6.3 (2,135 votes)
Summary: In order to be reinstated to the bar and recover custody of her daughter, a hotshot lawyer, now in recovery and on probation, must take on the appeal of a woman wrongfully convicted of murder.
Votes
Good: 0
Bad: 0
GoodBad
1
Seeders
0
Leechers

Added: 2014-07-14

Size: 3.38 GB

Health: 25%

Hash (Base16): 6E02C70D9BDB979DA6AEDAE59B9FF0CEF8FE36F5

Hash (Base32): NYBMODM33OLZ3JVO3LSZXH7QZ34P4NXV

DownloadBookmark
^

The.Trials.of.Cate.McCall.2013.720p.BluRay.x264-WiKi

image

Title: The Trials of Cate McCall (2013)
IMDB Rating: 6.3/10
Genres: Drama
Actors: Kate Beckinsale , James Cromwell , Taye Diggs , Clancy Brown , Nick Nolte , Mark Pellegrino , David Lyons , Dale Dickey , Brendan Sexton III , Isaiah Washington , Kathy Baker , Deborah Van Valkenburgh , Ava Kolker , Jay Thomas , Anna Anissimova
Runtime: 89
Year: 2013
Plot:
In California| Cate McCall is an alcoholic lawyer that was put on probation and rehab. She had an argument with a judge that sent her to the Breathalyzer test and
the bar put her on probation in a small office. Cate is also fighting to recover custody of her daughter that lives with her father that is moving to Seattle. Cate
is assigned to defend Lacey Stubbs| who has appealed claiming that she had been wrongly accused of murdering another woman since there was a trial error. Further|
Lacey also tells that she was raped by a guard in the prison. Cate| who has never lost a case| investigates the case with his friend Bridges and they find evidences
that might prove that Lacey is innocent and her case is fabricated. But is she really not guilty? [mediainfo]


Format : Matroska
Format version : Version 2
File size : 3.33 GiB
Duration : 1h 32mn
Overall bit rate : 5 137 Kbps
Encoded date : UTC 2014-07-13 13:27:11
Writing application : mkvmerge v5.8.0 ('No Sleep / Pillow') built on Sep 2 2012 15:37:04
Writing library : libebml v1.2.3 + libmatroska v1.3.0

Video
ID : 1
Format : AVC
Format/Info : Advanced Video Codec
Format profile : High@L4.1
Format settings, CABAC : Yes
Format settings, ReFrames : 9 frames
Codec ID : V_MPEG4/ISO/AVC
Duration : 1h 32mn
Bit rate : 4 500 Kbps
Width : 1 280 pixels
Height : 694 pixels
Display aspect ratio : 1.85:1
Frame rate mode : Constant
Frame rate : 23.976 fps
Color space : YUV
Chroma subsampling : 4:2:0
Bit depth : 8 bits
Scan type : Progressive
Bits/(Pixel*Frame) : 0.211
Stream size : 2.85 GiB (86%)
Writing library : x264 core 136 r2348+704+51 d1baef6 tMod [8-bit@all X86_64]
Encoding settings : cabac=1 / ref=9 / deblock=1:-2:-2 / analyse=0x3:0x133 / me=umh / subme=11 / psy=1 / fade_compensate=0.00 / psy_rd=1.05:0.00 / mixed_ref=1 / me_range=32 / chroma_me=1 / trellis=2 / 8x8dct=1 / cqm=0 / deadzone=21,11 / fast_pskip=0 / chroma_qp_offset=-2 / threads=12 / lookahead_threads=2 / sliced_threads=0 / nr=0 / decimate=0 / interlaced=0 / bluray_compat=0 / constrained_intra=0 / fgo=0 / bframes=8 / b_pyramid=2 / b_adapt=2 / b_bias=0 / direct=3 / weightb=1 / open_gop=0 / weightp=2 / keyint=250 / keyint_min=23 / scenecut=40 / intra_refresh=0 / rc=2pass / mbtree=0 / bitrate=4500 / ratetol=1.0 / qcomp=0.80 / qpmin=0:0:0 / qpmax=69:69:69 / qpstep=4 / cplxblur=20.0 / qblur=0.5 / ip_ratio=1.40 / pb_ratio=1.30 / aq=3:0.95 / aq-sensitivity=10.00 / aq-factor=1.00:1.00:1.00 / aq2=0 / aq3=0
Language : English
Default : Yes
Forced : No
Matrix coefficients : BT.709

Audio
ID : 2
Format : AC-3
Format/Info : Audio Coding 3
Mode extension : CM (complete main)
Format settings, Endianness : Big
Codec ID : A_AC3
Duration : 1h 32mn
Bit rate mode : Constant
Bit rate : 640 Kbps
Channel(s) : 6 channels
Channel positions : Front: L C R, Side: L R, LFE
Sampling rate : 48.0 KHz
Bit depth : 16 bits
Compression mode : Lossy
Stream size : 425 MiB (12%)
Language : English
Default : Yes
Forced : No

Text
ID : 3
Format : UTF-8
Codec ID : S_TEXT/UTF8
Codec ID/Info : UTF-8 Plain Text
Language : English
Default : No
Forced : No

Menu
00:00:00.000 : en:00:00:00.000
00:12:00.929 : en:00:12:00.929
00:24:51.740 : en:00:24:51.740
00:36:43.535 : en:00:36:43.535
00:45:44.200 : en:00:45:44.200
00:52:01.160 : en:00:52:01.160
01:07:37.178 : en:01:07:37.178
01:10:07.036 : en:01:10:07.036
01:14:29.006 : en:01:14:29.006
01:17:02.701 : en:01:17:02.701
01:22:07.422 : en:01:22:07.422
01:27:59.608 : en:01:27:59.608

[/mediainfo]

TRACKERSEEDLEECHDOWNLOADED
udp://tracker.coppersurfer.tk:6969/announce
http://mgtracker.org:2710/announce
udp://9.rarbg.me:2710/announce
udp://11.rarbg.me:80/announce
udp://10.rarbg.me:80/announce
udp://12.rarbg.me:80/announce
udp://9.rarbg.com:2710/announce
udp://open.demonii.com:1337/announce
udp://tracker.publicbt.com:80/announce
udp://tracker.istole.it:80/announce
udp://tracker.openbittorrent.com:80/announce
udp://tracker.istole.it:6969/announce
http://tracker.istole.it/announce
http://tracker.trackerfix.com/announce
udp://tracker.ccc.de:80/announce
http://tracker.thepiratebay.org/announce
udp://tracker-ccc.de:6969/announce
FILESIZE
RARBG.com.txt31 B
Sample/The.Trials.of.Cate.McCall.2013.720p.BluRay.x264-WiKi.Sample.mkv50.8 MB
The.Trials.of.Cate.McCall.2013.720p.BluRay.x264-WiKi.md593 B
The.Trials.of.Cate.McCall.2013.720p.BluRay.x264-WiKi.mkv3.33 GB
The.Trials.of.Cate.McCall.2013.720p.BluRay.x264-WiKi.nfo4.66 KB

Related results

Date Title Size Files Seeds Leechs Category Health
Video(Movies) 7.57 GB 5 2014-07-13 0 1 25%
Video(Movies) 6.61 GB 4 2014-06-08 0 1 25%
Video(Movies) 736.39 MB 1 2014-06-15 0 1 25%
Video(Movies) 1.37 GB 1 2014-06-15 1 0 25%
Video(Movies) 3.32 GB 78 2014-06-07 1 0 25%
Video(Movies) 6.55 GB 74 2014-06-08 0 1 25%
Video(Movies) 626.1 MB 1 2014-06-08 0 1 25%
Video(Movies) 2.27 GB 3 2014-07-01 0 1 25%

Login

Account deleting

Are you sure you want to delete your account?

WARNING: This action cannot be undone!!!