Login / Register
1080p

The Omen 1976 1080p BluRay DTS x264-CtrlHD

Category: Video
Type: Movies
Movie Title: The Omen
Detected quality: 1080p
Release date: 1976-06-24
Cast: Gregory Peck, Lee Remick, David Warner, Ya'Ackov Banai, Martin Benson, Harvey Bernhard, Bruce Boa, Roy Boyd, Nicholas Campbell, Freda Dowie
Genre: Thriller, Mystery, Horror
External Links: IMDB
IMDB rating: 7.6 (67,791 votes)
Summary: Mysterious deaths surround an American ambassador. Could the child that he is raising actually be the anti-christ? The devil's own son?
Votes
Good: 0
Bad: 0
GoodBad
1
Seeders
0
Leechers

Added: 2014-07-14

Size: 7.91 GB

Health: 25%

Hash (Base16): C76438C6E7E7606769F9D6767BF57B446FDAE8F5

Hash (Base32): Y5SDRRXH45QGO2PZ2Z3HX5L3IRX5V2HV

DownloadBookmark
^

The Omen 1976 1080p BluRay DTS x264-CtrlHD

image

Title: The Omen (1976)
IMDB Rating: 7.6/10
Genres: Horror , Mystery
Actors: Gregory Peck , Lee Remick , David Warner , Billie Whitelaw , Harvey Stephens , Patrick Troughton , Martin Benson , Robert Rietty , Tommy Duggan , John Stride , Anthony Nicholls , Holly Palance , Roy Boyd , Freda Dowie , Sheila Raynor
Runtime: 111
Year: 1976
Plot:
Robert and Katherine Thorn seem to have it all. They are happily married and he is the US Ambassador to Great Britain| but they want more than to have children. When
Katharine has a stillborn child| Robert is approached by a priest at the hospital who suggests that they take a healthy newborn whose mother has just died in
childbirth. Without telling his wife he agrees. After relocating to London| strange events - and the ominous warnings of a priest - lead him to believe that the
child he took from that Italian hospital is evil incarnate. [mediainfo]


Format : Matroska
Format version : Version 1
File size : 7.91 GiB
Duration : 1h 51mn
Overall bit rate : 10.2 Mbps
Encoded date : UTC 2008-12-15 02:04:30
Writing application : mkvmerge v2.1.0 ('Another Place To Fall') built on Aug 19 2007 13:40:07
Writing library : libebml v0.7.7 + libmatroska v0.8.1

Video
ID : 1
Format : AVC
Format/Info : Advanced Video Codec
Format profile : High@L4.0
Format settings, CABAC : Yes
Format settings, ReFrames : 5 frames
Format settings, GOP : N=1
Codec ID : V_MPEG4/ISO/AVC
Duration : 1h 51mn
Bit rate : 8 690 Kbps
Width : 1 912 pixels
Height : 810 pixels
Display aspect ratio : 2.35:1
Frame rate mode : Constant
Frame rate : 23.976 fps
Color space : YUV
Chroma subsampling : 4:2:0
Bit depth : 8 bits
Scan type : Progressive
Bits/(Pixel*Frame) : 0.234
Stream size : 6.59 GiB (83%)
Writing library : x264 core 65 r1051M 549cc55
Encoding settings : cabac=1 / ref=5 / deblock=1:-3:-3 / analyse=0x3:0x133 / me=umh / subme=8 / psy_rd=1.2:0.0 / mixed_ref=1 / me_range=32 / chroma_me=1 / trellis=2 / 8x8dct=1 / cqm=0 / deadzone=21,11 / chroma_qp_offset=-2 / threads=6 / nr=0 / decimate=1 / mbaff=0 / bframes=16 / b_pyramid=1 / b_adapt=1 / b_bias=0 / direct=1 / wpredb=1 / keyint=250 / keyint_min=25 / scenecut=40(pre) / rc=2pass / bitrate=8690 / ratetol=1.0 / qcomp=0.60 / qpmin=10 / qpmax=51 / qpstep=4 / cplxblur=20.0 / qblur=0.5 / ip_ratio=1.40 / pb_ratio=1.30 / aq=1:0.80
Language : English
Default : Yes
Forced : No

Audio
ID : 2
Format : DTS
Format/Info : Digital Theater Systems
Mode : 16
Format settings, Endianness : Big
Codec ID : A_DTS
Duration : 1h 51mn
Bit rate mode : Constant
Bit rate : 1 509 Kbps
Channel(s) : 6 channels
Channel positions : Front: L C R, Side: L R, LFE
Sampling rate : 48.0 KHz
Bit depth : 24 bits
Compression mode : Lossy
Stream size : 1.17 GiB (15%)
Language : English
Default : Yes
Forced : No


[/mediainfo]

TRACKERSEEDLEECHDOWNLOADED
udp://9.rarbg.me:2710/announce
udp://11.rarbg.me:80/announce
udp://10.rarbg.me:80/announce
udp://12.rarbg.me:80/announce
udp://9.rarbg.com:2710/announce
udp://open.demonii.com:1337/announce
udp://tracker.publicbt.com:80/announce
udp://tracker.istole.it:80/announce
udp://tracker.openbittorrent.com:80/announce
udp://tracker.istole.it:6969/announce
http://tracker.trackerfix.com/announce
udp://tracker.ccc.de:80/announce
http://tracker.thepiratebay.org/announce
udp://tracker-ccc.de:6969/announce
FILESIZE
RARBG.com.txt31 B
The Omen 1976 1080p BluRay DTS x264-CtrlHD.mkv7.91 GB
The Omen 1976 1080p BluRay DTS x264-CtrlHD.nfo758 B

Related results

Date Title Size Files Seeds Leechs Category Health
Video(Movies) 4.42 GB 4 2014-04-14 1 1 25%
Video(Movies) 4.37 GB 3 2013-12-20 6 1 100%
Video(TV) 22.81 GB 11 2013-12-02 1 0 25%
Video(Movies) 62.08 GB 27 2011-01-25 3 3 25%
Video(Movies) 4.35 GB 1 2008-10-27 5 0 100%
Video(Movies) 4.38 GB 1 2011-02-20 8 2 100%
Video(Movies) 4.36 GB 2 2012-09-17 0 1 25%
Video(Movies) 7.99 GB 7 2014-08-13 0 1 25%

Login

Account deleting

Are you sure you want to delete your account?

WARNING: This action cannot be undone!!!