Login / Register

The.Colbert.Report.2014.07.14.Jad.Abumrad.HDTV.x264-LMAO[rartv]

Category: Video
Type: TV
Movie Title: The Colbert Report
Cast: Matthew Wood,Sam Waterston,Scott Adsit,Ahmed Best,David Oliver Cohen,David Cross,Rich Dahm,Rich Dahm,Paul Dinello,Eric Drysdale,Glenn Eichler,Jimmy Fallon,James Franco,Ralph Archbold,Samuel L. Jackson,Eugene Mirman,John Lithgow,Jon Glaser,Amy Sedaris
Genre: Comedy, News, Talk-Show
External Links: IMDB
Directors: Jim Hoskinson,Paul B. Cummings
Producers: Stephen Colbert,Rich Dahm,Rich Dahm,Paul Dinello,Glenn Eichler,Jon Stewart,Cole Kazdin,Samantha Scharff,Tanya Michnevich,Allison Silverman,Ben Karlin,Meredith Bennett,Tom Purcell,Barry Julien,Matt Lappin,Laura Ganis,John Bedolis,Gabe Gronli
Writers: Stephen Colbert,Rich Dahm,Rich Dahm,Paul Dinello,Eric Drysdale,Glenn Eichler,Michael Koman,Allison Silverman,Meredith Scardino,Bryan Adams,Tom Purcell,Barry Julien,Peter Grosz,Bobby Mort,Laura Krafft,Peter Gwinn,Jay Katsir,Michael Brumm,Rob Dubbin
Duration: 30
Summary: Satirist news caster Stephen Colbert provides humorous commentary on the big issues going on in the United States and the rest of the world, with his larger then life ego and overly patriotic spirit along with him every step of the way.
Votes
Good: 0
Bad: 0
GoodBad
1
Seeders
0
Leechers

Added: 2014-07-15

Size: 154.7 MB

Health: 25%

Hash (Base16): 8944EBF1C5D1B2280398D7E7251D00FAE3001CFF

Hash (Base32): RFCOX4OF2GZCQA4Y27TSKHIA7LRQAHH7

DownloadBookmark
DOWNLOAD LOCATIONS
http://rarbg.to/torrent/2qaekhw
http://thepiratebay.se/torrent/10557858/The.Colbert.Report.2014.07.14.Jad.Abumrad.HDTV.x264-LMAO[rartv]
http://bitsnoop.com/the-colbert-report-2014-07-14-jad-a-q66081642.html
http://isohunt.to/torrent_details/12096361/The-Colbert-Report-2014-07-14-Jad-Abumrad-HDTV-x264-LMAO-rarbg
http://torrenthound.to/hash/8944ebf1c5d1b2280398d7e7251d00fae3001cff/torrent-info/The.Colbert.Report.2014.07.14.Jad.Abumrad.HDTV.x264-LMAO-rartv
http://www.monova.org/torrent/8276743/TheColbertReport20140714JadAbumradHDTVx264-LMAO_rartv_.html
http://www.torlock.com/torrent/3055714/the-colbert-report-2014-07-14-jad-abumrad-x264-lmaobg.html
http://www.torrents.net/torrent/5225041/The.Colbert.Report.2014.07.14.Jad.Abumrad.HDTV.x264-LMAO[rarbg]/
http://www.limetorrents.cc/The-Colbert-Report-2014-07-14-Jad-Abumrad-HDTV-x264-LMAO[rartv]-torrent-4800616.html
http://fastpiratebay.eu/thepiratebay.se/torrent/10557858/The.Colbert.Report.2014.07.14.Jad.Abumrad.HDTV.x264-LMAO[rartv]
http://www.torrentreactor.net/torrents/25735322/The-Colbert-Report-2014-07-14-Jad-Abumrad-HDTV-x264-LMAO-rarbg
http://www.seedpeer.me/details/8230832/The.Colbert.Report.2014.07.14.Jad.Abumrad.HDTV.x264-LMAO%5Brartv%5D.html
http://www.torrentdownloads.me/torrent/1658622969/The+Colbert+Report+2014+07+14+Jad+Abumrad+HDTV+x264-LMAO%5Brarbg%5D
http://www.torrentfunk.com/torrent/8918088/the-colbert-report-2014-07-14-jad-abumrad-x264-lmaobg.html
http://torrentproject.se/8944ebf1c5d1b2280398d7e7251d00fae3001cff/The-Colbert-Report-(2014)-07-14-Jad-Abumrad-HDTV-x264-LMAO-rarbg-torrent.html
^

The.Colbert.Report.2014.07.14.Jad.Abumrad.HDTV.x264-LMAO[rartv]

image
[mediainfo]

Video
ID : 1
Format : AVC
Format/Info : Advanced Video Codec
Format profile : High@L3.1
Format settings, CABAC : Yes
Format settings, ReFrames : 5 frames
Codec ID : avc1
Codec ID/Info : Advanced Video Coding
Duration : 21mn 28s
Bit rate : 877 Kbps
Width : 720 pixels
Height : 404 pixels
Display aspect ratio : 16:9
Frame rate mode : Constant
Frame rate : 29.970 fps
Color space : YUV
Chroma subsampling : 4:2:0
Bit depth : 8 bits
Scan type : Progressive
Bits/(Pixel*Frame) : 0.101
Stream size : 135 MiB (87%)
Writing library : x264 core 142 r2431 ac76440
Encoding settings : cabac=1 / ref=5 / deblock=1:0:0 / analyse=0x3:0x113 / me=umh / subme=8 / psy=1 / psy_rd=1.00:0.00 / mixed_ref=1 / me_range=16 / chroma_me=1 / trellis=1 / 8x8dct=1 / cqm=0 / deadzone=21,11 / fast_pskip=1 / chroma_qp_offset=-2 / threads=18 / lookahead_threads=3 / sliced_threads=0 / nr=0 / decimate=1 / interlaced=0 / bluray_compat=0 / constrained_intra=0 / bframes=3 / b_pyramid=2 / b_adapt=2 / b_bias=0 / direct=3 / weightb=1 / open_gop=0 / weightp=2 / keyint=250 / keyint_min=25 / scenecut=40 / intra_refresh=0 / rc_lookahead=50 / rc=crf / mbtree=1 / crf=20.0 / qcomp=0.60 / qpmin=0 / qpmax=69 / qpstep=4 / ip_ratio=1.40 / aq=1:1.00
Encoded date : UTC 2011-09-08 11:43:25
Tagged date : UTC 2011-09-08 11:43:25
Matrix coefficients : BT.709

Audio
ID : 2
Format : AAC
Format/Info : Advanced Audio Codec
Format profile : LC
Codec ID : 40
Duration : 21mn 28s
Bit rate mode : Variable
Bit rate : 123 Kbps
Maximum bit rate : 188 Kbps
Channel(s) : 2 channels
Channel positions : Front: L R
Sampling rate : 48.0 KHz
Compression mode : Lossy
Stream size : 18.8 MiB (12%)
Encoded date : UTC 2011-09-08 11:43:25
Tagged date : UTC 2011-09-08 11:43:25

[/mediainfo]

TRACKERSEEDLEECHDOWNLOADED
udp://tracker.coppersurfer.tk:6969/announce
http://mgtracker.org:2710/announce
udp://9.rarbg.me:2710/announce
udp://11.rarbg.me:80/announce
udp://10.rarbg.me:80/announce
udp://12.rarbg.me:80/announce
udp://9.rarbg.com:2710/announce
udp://open.demonii.com:1337/announce
udp://tracker.publicbt.com:80/announce
udp://tracker.istole.it:80/announce
udp://tracker.openbittorrent.com:80/announce
udp://tracker.istole.it:6969/announce
http://tracker.trackerfix.com/announce
http://9.rarbg.com:2710/announce
udp://tracker.ccc.de:80/announce
http://tracker.thepiratebay.org/announce
http://tracker.flashtorrents.org:6969/announce
udp://tracker-ccc.de:6969/announce
FILESIZE
RARBG.com.txt31 B
The.Colbert.Report.2014.07.14.Jad.Abumrad.HDTV.x264-LMAO.mp4154.7 MB
the.colbert.report.2014.07.14.jad.abumrad.hdtv.x264-lmao.nfo1.56 KB

Related results

Date Title Size Files Seeds Leechs Category Health
Video(TV) 509.89 MB 3 2014-07-14 0 1 25%

Login

Account deleting

Are you sure you want to delete your account?

WARNING: This action cannot be undone!!!