Login / Register

The.Daily.Show.2014.07.14.Dahlia.Lithwick.720p.HDTV.x264-LMAO[rartv]

Category: Video
Type: TV
Movie Title: The Daily Show
Cast: Christopher Guest,Wallace Shawn,Michael McKean,Harry Shearer,Jason Jones,Elliott Kalan,Kimberly Magness,Jaden Michael,Harry Shearer
Genre: Comedy, News, Talk-Show
External Links: IMDB
Directors: Andy Barsh,Chuck O'Neil,Scott Preston,Jim Hoskinson,Scott Preston
Producers: Stewart Bailey,Dave Blog,Kevin Blond,Edward Butler,Adam Chodikoff,Stephen Colbert,Kahane Cooperman,Lindsay Crystal,Evan Cutler,Rich Dahm,Rich Dahm,Chiara Edmands,Glenn Eichler,Bronwen Epstein,Jon Stewart,Rob Fox,Hank Gallo,Michael McDermott,Jeff Stilson
Writers: Kevin Bleyer,A. Whitney Brown,Stephen Colbert,Rich Dahm,Rich Dahm,Eric Drysdale,Jim Earl,Jon Stewart,David Feldman,Scott Jacobson,Jeff Stilson,Charlie Grandy,Ray James,Rich Blomquist,Josh Lieb,Guy Nicolucci,Daniel J. Goor,Allison Silverman,Aaron Bergeron
Duration: 30
Summary: America's top fake news show.
Votes
Good: 0
Bad: 0
GoodBad
1
Seeders
0
Leechers

Added: 2014-07-15

Size: 419.44 MB

Health: 25%

Hash (Base16): 2D5C4E3ED56BC6BEA61A728930EBC3D3832DC2DC

Hash (Base32): FVOE4PWVNPDL5JQ2OKETB26D2OBS3QW4

DownloadBookmark
DOWNLOAD LOCATIONS
http://rarbg.to/torrent/vwx58mf
http://thepiratebay.se/torrent/10557617/The.Daily.Show.2014.07.14.Dahlia.Lithwick.720p.HDTV.x264-LMAO[ra
http://bitsnoop.com/the-daily-show-2014-07-14-dahlia-li-q66080090.html
http://isohunt.to/torrent_details/12096244/The-Daily-Show-2014-07-14-Dahlia-Lithwick-720p-HDTV-x264-LMAO-rarbg
http://torrenthound.to/hash/2d5c4e3ed56bc6bea61a728930ebc3d3832dc2dc/torrent-info/The.Daily.Show.2014.07.14.Dahlia.Lithwick.720p.HDTV.x264-LMAO-rartv
http://www.monova.org/torrent/8276489/TheDailyShow20140714DahliaLithwick720pHDTVx264-LMAO_rartv_.html
http://www.torlock.com/torrent/3055672/the-daily-show-2014-07-14-dahlia-lithwick-720p-x264-lmaobg.html
http://www.torrents.net/torrent/5225053/The.Daily.Show.2014.07.14.Dahlia.Lithwick.720p.HDTV.x264-LMAO[rarbg]/
http://www.limetorrents.cc/The-Daily-Show-2014-07-14-Dahlia-Lithwick-720p-HDTV-x264-LMAO[ra-torrent-4800568.html
http://fastpiratebay.eu/thepiratebay.se/torrent/10557617/The.Daily.Show.2014.07.14.Dahlia.Lithwick.720p.HDTV.x264-LMAO[ra
http://www.torrentreactor.net/torrents/25732365/The-Daily-Show-2014-07-14-Dahlia-Lithwick-720p-HDTV-x264-LMAO-rarbg
http://www.seedpeer.me/details/8246104/The.Daily.Show.2014.07.14.Dahlia.Lithwick.720p.HDTV.x264-LMAO%5Brartv%5D.html
http://www.torrentzap.com/torrent/2421852/The+Daily+Show+2014+07+14+Dahlia+Lithwick+720p+HDTV+x264-LMAO%5Bra
http://www.torrentdownloads.me/torrent/1658622698/The+Daily+Show+2014+07+14+Dahlia+Lithwick+720p+HDTV+x264-LMAO%5Brarbg%5D
http://www.torrentfunk.com/torrent/8917894/the-daily-show-2014-07-14-dahlia-lithwick-720p-x264-lmaobg.html
^

The.Daily.Show.2014.07.14.Dahlia.Lithwick.720p.HDTV.x264-LMAO[rartv]

image
[mediainfo]

Video
ID : 1
Format : AVC
Format/Info : Advanced Video Codec
Format profile : [email protected]
Format settings, CABAC : Yes
Format settings, ReFrames : 5 frames
Codec ID : V_MPEG4/ISO/AVC
Duration : 21mn 28s
Bit rate : 2 291 Kbps
Width : 1 280 pixels
Height : 720 pixels
Display aspect ratio : 16:9
Frame rate mode : Constant
Frame rate : 29.970 fps
Color space : YUV
Chroma subsampling : 4:2:0
Bit depth : 8 bits
Scan type : Progressive
Bits/(Pixel*Frame) : 0.083
Stream size : 352 MiB (84%)
Writing library : x264 core 142 r2431 ac76440
Encoding settings : cabac=1 / ref=5 / deblock=1:-2:-2 / analyse=0x3:0x113 / me=umh / subme=8 / psy=1 / psy_rd=0.95:0.00 / mixed_ref=1 / me_range=16 / chroma_me=1 / trellis=1 / 8x8dct=1 / cqm=0 / deadzone=21,11 / fast_pskip=1 / chroma_qp_offset=-2 / threads=18 / lookahead_threads=3 / sliced_threads=0 / nr=0 / decimate=1 / interlaced=0 / bluray_compat=0 / constrained_intra=0 / bframes=3 / b_pyramid=2 / b_adapt=2 / b_bias=0 / direct=3 / weightb=1 / open_gop=0 / weightp=2 / keyint=250 / keyint_min=25 / scenecut=40 / intra_refresh=0 / rc_lookahead=50 / rc=crf / mbtree=1 / crf=19.0 / qcomp=0.60 / qpmin=0 / qpmax=69 / qpstep=4 / ip_ratio=1.40 / aq=2:0.60
Language : English
Default : Yes
Forced : No

Audio
ID : 2
Format : AC-3
Format/Info : Audio Coding 3
Mode extension : CM (complete main)
Format settings, Endianness : Big
Codec ID : A_AC3
Duration : 21mn 28s
Bit rate mode : Constant
Bit rate : 384 Kbps
Channel(s) : 2 channels
Channel(s)_Original : 6 channels
Channel positions : Front: L C R, Side: L R, LFE
Sampling rate : 48.0 KHz
Bit depth : 16 bits
Compression mode : Lossy
Stream size : 59.0 MiB (14%)
Language : English
Default : Yes
Forced : No

[/mediainfo]

TRACKERSEEDLEECHDOWNLOADED
udp://9.rarbg.me:2710/announce
udp://11.rarbg.me:80/announce
udp://10.rarbg.me:80/announce
udp://12.rarbg.me:80/announce
udp://9.rarbg.com:2710/announce
udp://open.demonii.com:1337/announce
udp://tracker.publicbt.com:80/announce
udp://tracker.istole.it:80/announce
udp://tracker.openbittorrent.com:80/announce
udp://tracker.istole.it:6969/announce
http://tracker.nwps.ws:6969/announce
http://bt.careland.com.cn:6969/announce
http://bttracker.crunchbanglinux.org:6969/announce
http://tracker.best-torrents.net:6969/announce
http://tracker.trackerfix.com/announce
http://9.rarbg.com:2710/announce
udp://tracker.ccc.de:80/announce
http://tracker.thepiratebay.org/announce
http://shadowshq.yi.org:6969/announce
http://www.eddie4.nl:6969/announce
udp://tracker-ccc.de:6969/announce
FILESIZE
RARBG.com.txt31 B
The.Daily.Show.2014.07.14.Dahlia.Lithwick.720p.HDTV.x264-LMAO.mkv419.44 MB
the.daily.show.2014.07.14.dahlia.lithwick.720p.hdtv.x264-lmao.nfo1.56 KB

Related results

Date Title Size Files Seeds Leechs Category Health
Video(TV) 131.9 MB 3 2014-07-14 1 0 25%

Login

Account deleting

Are you sure you want to delete your account?

WARNING: This action cannot be undone!!!