Login / Register

The.Bachelorette.S10E09.HDTV.x264-BAJSKORV[rartv]

Category: Video
Type: TV
Movie Title: The Bachelorette
Season: 10
Episode: 9
Episode Title: Week 8 (S10)
Release date: 2014-07-06
Cast: Ken Fuchs,David Price,Jason A. Carbone,Marshall Watson,Mike Fleiss,Chris Harrison,Jerry Ferris,Ali Fedotowsky,Ashley Hebert,Deanna Pappas,Jason Mesnick,Jillian Harris,Trista Rehn,Ryan Sutter,Benjamin Flajnik,J.P. Rosenbaum,Kiptyn Locke,Reid Rosentha
Genre: Game-Show, Reality-TV, Romance
External Links: IMDB
Directors: Jason A. Carbone,Jason A. Carbone,Ken Fuchs,German Abarca Jr.,Marshall Watson,David Price,Nick Foss,Brett Register,Sarah De Lao
Producers: Mike Aho,Jason A. Carbone,Jason A. Carbone,Liza DiCarlo,Micah Dyer,Jason Ehrlich,Elan Gale,Lyle Gamm,David Gardner,Ben Hatta,Jayna Pellegrino,John Carlo Zenone,Lisa Levenson,Mimi Freedman,Mark Weingarten,Heather Adams,Jody Paul,Brooke Glassman
Writers: Mike Fleiss,Kristian Harloff,Troy Vincent
Duration: 60
Original run: 2003-01-07
Summary: Ashley Hebert couldn't admit she was in love with "Bachelor" Brad Womack - and it might have cost her the final rose - but that's all in the past. The energetic and vivacious Hebert, is ready to start a new life with a soul mate she might soon meet in the seventh edition of "The Bachelorette."
Votes
Good: 0
Bad: 0
GoodBad
1
Seeders
0
Leechers

Added: 2014-07-15

Size: 653.73 MB

Health: 25%

Hash (Base16): 1BB2C6B056657432D1F194A235568EFC2B57E35B

Hash (Base32): DOZMNMCWMV2DFUPRSSRDKVUO7QVVPY23

DownloadBookmark
^

The.Bachelorette.S10E09.HDTV.x264-BAJSKORV[rartv]

image
[mediainfo]

Video
ID : 1
Format : AVC
Format/Info : Advanced Video Codec
Format profile : High@L3.1
Format settings, CABAC : Yes
Format settings, ReFrames : 5 frames
Codec ID : avc1
Codec ID/Info : Advanced Video Coding
Duration : 1h 25mn
Bit rate : 935 Kbps
Maximum bit rate : 5 900 Kbps
Width : 720 pixels
Height : 404 pixels
Display aspect ratio : 16:9
Frame rate mode : Constant
Frame rate : 29.970 fps
Color space : YUV
Chroma subsampling : 4:2:0
Bit depth : 8 bits
Scan type : Progressive
Bits/(Pixel*Frame) : 0.107
Stream size : 573 MiB (88%)
Writing library : x264 core 142 r2431 ac76440
Encoding settings : cabac=1 / ref=5 / deblock=1:1:1 / analyse=0x3:0x133 / me=umh / subme=9 / psy=1 / psy_rd=1.00:0.00 / mixed_ref=1 / me_range=16 / chroma_me=1 / trellis=2 / 8x8dct=1 / cqm=0 / deadzone=21,11 / fast_pskip=1 / chroma_qp_offset=-2 / threads=18 / lookahead_threads=1 / sliced_threads=0 / nr=0 / decimate=1 / interlaced=0 / bluray_compat=0 / constrained_intra=0 / bframes=3 / b_pyramid=2 / b_adapt=2 / b_bias=0 / direct=3 / weightb=1 / open_gop=0 / weightp=2 / keyint=250 / keyint_min=25 / scenecut=40 / intra_refresh=0 / rc_lookahead=60 / rc=crf / mbtree=1 / crf=22.0 / qcomp=0.60 / qpmin=0 / qpmax=69 / qpstep=4 / ip_ratio=1.40 / aq=1:1.00
Encoded date : UTC 2014-07-14 21:16:29
Tagged date : UTC 2014-07-14 21:16:44
Matrix coefficients : BT.709

Audio
ID : 2
Format : AAC
Format/Info : Advanced Audio Codec
Format profile : LC
Codec ID : 40
Duration : 1h 25mn
Bit rate mode : Variable
Bit rate : 126 Kbps
Maximum bit rate : 148 Kbps
Channel(s) : 2 channels
Channel positions : Front: L R
Sampling rate : 48.0 KHz
Compression mode : Lossy
Stream size : 77.5 MiB (12%)
Encoded date : UTC 2014-07-14 21:16:31
Tagged date : UTC 2014-07-14 21:16:44

[/mediainfo]

TRACKERSEEDLEECHDOWNLOADED
http://mgtracker.org:2710/announce
udp://9.rarbg.me:2710/announce
udp://11.rarbg.me:80/announce
udp://10.rarbg.me:80/announce
udp://12.rarbg.me:80/announce
udp://9.rarbg.com:2710/announce
udp://open.demonii.com:1337/announce
udp://tracker.publicbt.com:80/announce
udp://tracker.istole.it:80/announce
udp://tracker.openbittorrent.com:80/announce
udp://tracker.istole.it:6969/announce
http://tracker.istole.it/announce
http://bt.careland.com.cn:6969/announce
http://tracker.best-torrents.net:6969/announce
http://tracker.trackerfix.com/announce
http://exodus.desync.com:6969/announce
udp://11.rarbg.com:80/announce
udp://tracker.ccc.de:80/announce
http://tracker.thepiratebay.org/announce
http://shadowshq.eddie4.nl:6969/announce
http://shadowshq.yi.org:6969/announce
http://www.eddie4.nl:6969/announce
http://eddie4.nl:6969/announce
http://retracker.perm.ertelecom.ru/announce
http://121.14.98.151:9090/announce
udp://tracker-ccc.de:6969/announce
udp://glotorrents.pw:6969/announce
udp://torrent.gresille.org:80/announce
udp://tracker.opentrackr.org:1337/announce
FILESIZE
RARBG.com.txt31 B
the.bachelorette.s10e09.hdtv.x264-bajskorv.mp4653.73 MB
the.bachelorette.s10e09.hdtv.x264-bajskorv.nfo82 B

Related results

Date Title Size Files Seeds Leechs Category Health
Video(TV) 2.45 GB 3 2014-07-14 0 1 25%
Video(TV) 2.07 GB 3 2014-07-07 0 1 25%
Video(TV) 522.1 MB 3 2014-07-07 2 0 100%
Video(TV) 513.16 MB 3 2014-06-30 1 1 25%
Video(TV) 514.29 MB 3 2014-06-23 1 0 25%
Video(TV) 488.29 MB 3 2014-06-16 0 1 25%
Video(TV) 574.06 MB 3 2014-06-02 0 1 25%
Video(TV) 313.42 MB 3 2014-06-09 0 1 25%
Video(TV) 565.1 MB 3 2014-06-01 3 1 100%
Video(TV) 2.24 GB 4 2014-06-01 0 1 25%

Login

Account deleting

Are you sure you want to delete your account?

WARNING: This action cannot be undone!!!