Login / Register

24.S09E12.HDTV.x264-LOL[rartv]

Category: Video
Type: TV
Language: English
Movie Title: 24: Live Another Day
Season: 9
Episode: 12
Cast: Gbenga Akinnagbe,Benjamin Bratt,William Devane,Tate Donovan,Michelle Fairley,Giles Matthey,Mary Lynn Rajskub,Kim Raver,Yvonne Strahovski,Michael Wincott,Branko Tomovic,Adam Sinclair,Jonah Russell,Miranda Raison,Emily Berrington,Ross McCall,Duncan Pow
Genre: Action, Drama, Mystery
External Links: IMDB
Directors: Jon Cassar,Milan Cheylov,Milan Cheylov,Adam Kane,Omar Madha
Producers: Kiefer Sutherland,Brian Grazer,Tony Basgallop,Jon Cassar,Robert Cochran,Manny Coto,David Fury,Iain Smith,Howard Gordon,Evan Katz,Ashley Contino,Sang Kyu Kim
Writers: Tony Basgallop,Robert Cochran,Manny Coto,David Fury,Joel Surnow,Evan Katz,Patrick Harbinson,Adam DaSilva,Sang Kyu Kim
Duration: 107
Original run: 2011-05-10
IMDB rating: 8.4 (51 votes)
Summary: Jack Bauer comes out of hiding in London to head off a massive terrorist attack while being hunted down by American forces dispatched by President James Heller.
Votes
Good: 0
Bad: 0
GoodBad
0
Seeders
1
Leechers

Added: 2014-07-15

Size: 275.59 MB

Health: 25%

Hash (Base16): 272673BDED133794D1735D8F4CA3BAB5B239F032

Hash (Base32): E4THHPPNCM3ZJULTLWHUZI52WWZDT4BS

DownloadBookmark
^

24.S09E12.HDTV.x264-LOL[rartv]

image
[mediainfo]

Video
ID : 1
Format : AVC
Format/Info : Advanced Video Codec
Format profile : High@L3.1
Format settings, CABAC : Yes
Format settings, ReFrames : 5 frames
Codec ID : avc1
Codec ID/Info : Advanced Video Coding
Duration : 43mn 56s
Bit rate : 746 Kbps
Maximum bit rate : 4 048 Kbps
Width : 720 pixels
Height : 404 pixels
Display aspect ratio : 16:9
Frame rate mode : Constant
Frame rate : 23.976 fps
Color space : YUV
Chroma subsampling : 4:2:0
Bit depth : 8 bits
Scan type : Progressive
Bits/(Pixel*Frame) : 0.107
Stream size : 234 MiB (85%)
Writing library : x264 core 142 r2431 ac76440
Encoding settings : cabac=1 / ref=5 / deblock=1:1:1 / analyse=0x3:0x133 / me=umh / subme=9 / psy=1 / psy_rd=1.00:0.00 / mixed_ref=1 / me_range=16 / chroma_me=1 / trellis=2 / 8x8dct=1 / cqm=0 / deadzone=21,11 / fast_pskip=0 / chroma_qp_offset=-2 / threads=16 / lookahead_threads=1 / sliced_threads=0 / nr=0 / decimate=1 / interlaced=0 / bluray_compat=0 / constrained_intra=0 / bframes=3 / b_pyramid=2 / b_adapt=2 / b_bias=0 / direct=3 / weightb=1 / open_gop=0 / weightp=2 / keyint=250 / keyint_min=23 / scenecut=40 / intra_refresh=0 / rc_lookahead=60 / rc=crf / mbtree=1 / crf=19.0 / qcomp=0.60 / qpmin=0 / qpmax=69 / qpstep=4 / ip_ratio=1.40 / aq=1:1.00
Encoded date : UTC 2014-07-12 15:27:48
Tagged date : UTC 2014-07-14 13:35:28
Matrix coefficients : BT.709

Audio
ID : 2
Format : AAC
Format/Info : Advanced Audio Codec
Format profile : LC
Codec ID : 40
Duration : 43mn 57s
Bit rate mode : Variable
Bit rate : 127 Kbps
Maximum bit rate : 156 Kbps
Channel(s) : 2 channels
Channel positions : Front: L R
Sampling rate : 48.0 KHz
Compression mode : Lossy
Stream size : 39.9 MiB (14%)
Encoded date : UTC 2014-07-14 13:35:27
Tagged date : UTC 2014-07-14 13:35:28

[/mediainfo]

TRACKERSEEDLEECHDOWNLOADED
udp://9.rarbg.me:2710/announce
udp://11.rarbg.me:80/announce
udp://10.rarbg.me:80/announce
udp://12.rarbg.me:80/announce
udp://9.rarbg.com:2710/announce
udp://open.demonii.com:1337/announce
udp://tracker.publicbt.com:80/announce
udp://tracker.istole.it:80/announce
udp://tracker.openbittorrent.com:80/announce
udp://tracker.istole.it:6969/announce
http://tracker.trackerfix.com/announce
http://9.rarbg.com:2710/announce
udp://tracker.ccc.de:80/announce
http://tracker.thepiratebay.org/announce
http://shadowshq.yi.org:6969/announce
http://www.eddie4.nl:6969/announce
udp://tracker-ccc.de:6969/announce
FILESIZE
24.912.hdtv-lol.mp4275.59 MB
24.912.hdtv-lol.nfo4.26 KB
RARBG.com.txt31 B

Related results

Date Title Size Files Seeds Leechs Category Health
Video(TV) 139.4 MB 3 2014-05-05 0 2 25%
Video(TV) 702.12 MB 3 2014-11-19 1 0 25%
Video(TV) 688.88 MB 4 2014-11-20 3 3 100%
Video(TV) 1.77 GB 3 2014-12-03 0 1 25%

Login

Account deleting

Are you sure you want to delete your account?

WARNING: This action cannot be undone!!!