Login / Register

Big.Brother.UK.S15E40.PDTV.x264-W4F[rartv]

Category: Video
Type: TV
Movie Title: Big Brother
Season: 15
Episode: 40
Episode Title: BB 14, Episode 40
Release date: 2013-07-21
Cast: Ciaran Morrison,Jeannette Charles,Mykel Hawke Pierce,Marcus Bentley,Thaila Zucchi,Mick O'Hara,Josie Gibson,Keylee Jade Flanders,Caoimhe Guilfoyle,Ife Kuku,John James Parton,Ben Duncan,Corin Forshaw,Nathan Dunn,Mario Mugan,Sunshine Martyn,Govan Hinds
Genre: Game-Show, Reality-TV
External Links: IMDB
Directors: Helen Downing,Martin Lord,Lucy Crofts,Simon Hepworth,Patrick Hughes,Alex Scott
Producers: Ben Adler,Brad Bishop,Kate Brown,Christopher Cardamone,Paul Coueslant,Rebekah Fry,Ryan Simpkins,David Rupel,Frank Rehwaldt,Shirley Jones,Martin Heriot,Maggie Kelleher,Heather Moore,Cam de la Huerta,Steve Joachim,Lucy Crofts,Ruth Wrigley,Paul Osborne
Duration: 60
Original run: 2000-07-13
Summary: Big Brother is the UK's biggest reality TV show and is one of the most popular talked-about shows in British TV history. Big Brother takes place entirely within the confines of the Big Brother House. It's essentially a competition between the house mates, the object of which is to be the last remaining house mate in the House. At least one house mate will leave the House every week by a process of nomination and public eviction. Housemates will nominate each other for eviction and those with the most votes from their peers face a public vote. The house mate that receives most public votes leaves the House and is out of the competition. Housemates are provided with a shopping budget each week to buy food and other necessities. Throughout the series house mates will be asked to complete tasks set by Big Brother. If the group does well in the tasks they get rewarded with a bigger shopping budget, plus special treats. On the final night of Big Brother the public vote on which house mate they want to win the show. The house mate with most votes wins a fabulous cash prize!
Votes
Good: 0
Bad: 0
GoodBad
1
Seeders
0
Leechers

Added: 2014-07-15

Size: 340.65 MB

Health: 25%

Hash (Base16): D747D5EBCA17760F542E81D751DA7416405EE541

Hash (Base32): 25D5L26KC53A6VBOQHLVDWTUCZAF5ZKB

DownloadBookmark
^

Big.Brother.UK.S15E40.PDTV.x264-W4F[rartv]

image
[mediainfo]

Video
ID : 1
Format : AVC
Format/Info : Advanced Video Codec
Format profile : [email protected]
Format settings, CABAC : Yes
Format settings, ReFrames : 5 frames
Codec ID : avc1
Codec ID/Info : Advanced Video Coding
Duration : 41mn 6s
Bit rate : 1 025 Kbps
Maximum bit rate : 6 866 Kbps
Width : 704 pixels
Height : 396 pixels
Display aspect ratio : 16:9
Frame rate mode : Constant
Frame rate : 25.000 fps
Color space : YUV
Chroma subsampling : 4:2:0
Bit depth : 8 bits
Scan type : Progressive
Bits/(Pixel*Frame) : 0.147
Stream size : 302 MiB (89%)
Writing library : x264 core 142 r2431 ac76440
Encoding settings : cabac=1 / ref=5 / deblock=1:0:0 / analyse=0x3:0x113 / me=umh / subme=8 / psy=1 / psy_rd=1.00:0.00 / mixed_ref=1 / me_range=16 / chroma_me=1 / trellis=1 / 8x8dct=1 / cqm=0 / deadzone=21,11 / fast_pskip=1 / chroma_qp_offset=-2 / threads=6 / lookahead_threads=1 / sliced_threads=0 / nr=0 / decimate=1 / interlaced=0 / bluray_compat=0 / constrained_intra=0 / bframes=3 / b_pyramid=2 / b_adapt=2 / b_bias=0 / direct=3 / weightb=1 / open_gop=0 / weightp=2 / keyint=250 / keyint_min=25 / scenecut=40 / intra_refresh=0 / rc_lookahead=50 / rc=crf / mbtree=1 / crf=21.0 / qcomp=0.60 / qpmin=0 / qpmax=69 / qpstep=4 / ip_ratio=1.40 / aq=1:1.00
Encoded date : UTC 2014-07-14 22:59:54
Tagged date : UTC 2014-07-14 23:00:00

Audio
ID : 2
Format : AAC
Format/Info : Advanced Audio Codec
Format profile : LC
Codec ID : 40
Duration : 41mn 6s
Bit rate mode : Variable
Bit rate : 129 Kbps
Maximum bit rate : 172 Kbps
Channel(s) : 2 channels
Channel positions : Front: L R
Sampling rate : 48.0 KHz
Compression mode : Lossy
Stream size : 37.9 MiB (11%)
Encoded date : UTC 2014-07-14 22:59:59
Tagged date : UTC 2014-07-14 23:00:00

[/mediainfo]

TRACKERSEEDLEECHDOWNLOADED
udp://9.rarbg.me:2710/announce
udp://11.rarbg.me:80/announce
udp://10.rarbg.me:80/announce
udp://12.rarbg.me:80/announce
udp://9.rarbg.com:2710/announce
udp://open.demonii.com:1337/announce
udp://tracker.publicbt.com:80/announce
udp://tracker.istole.it:80/announce
udp://tracker.openbittorrent.com:80/announce
udp://tracker.istole.it:6969/announce
http://tracker.istole.it/announce
http://tracker.trackerfix.com/announce
http://9.rarbg.com:2710/announce
udp://tracker.ccc.de:80/announce
http://tracker.thepiratebay.org/announce
udp://tracker-ccc.de:6969/announce
FILESIZE
RARBG.com.txt31 B
big.brother.uk.s15e40.pdtv.x264-w4f.mp4340.64 MB
big.brother.uk.s15e40.pdtv.x264-w4f.nfo6.13 KB

Related results

Date Title Size Files Seeds Leechs Category Health
Video(TV) 331.28 MB 3 2014-07-10 1 0 25%
Video(TV) 324.74 MB 3 2014-07-02 0 1 25%
Video(TV) 319.71 MB 3 2014-07-06 0 1 25%
Video(TV) 850.89 MB 3 2014-07-03 1 0 25%
Video(TV) 352.04 MB 3 2014-07-16 1 1 25%
Video(TV) 351.46 MB 3 2014-07-17 1 1 25%
Video(TV) 1.25 GB 3 2014-08-28 0 1 25%
Video(TV) 1.37 GB 3 2014-09-10 0 1 25%
Video(TV) 1.3 GB 3 2014-09-19 1 1 25%

Login

Account deleting

Are you sure you want to delete your account?

WARNING: This action cannot be undone!!!