Login / Register

Woman.To.Woman.XXX.WEBRiP.x264-TBP

Category: XXX
Type: Other
Votes
Good: 0
Bad: 0
GoodBad
0
Seeders
1
Leechers

Added: 2014-07-06

Size: 1.17 GB

Health: 25%

Hash (Base16): D5C9AB0E0D76B568A67AA0CACC8F317D3FD39330

Hash (Base32): 2XE2WDQNO22WRJT2UDFMZDZRPU75HEZQ

DownloadBookmark
^

Screenshots:


                 THE.BEST.PORN.GIVES

Woman.To.Woman.XXX.WEBRiP.x264-TBP

WEBSITE      : http://www.adultdvdempire.com/1353529/woman-to-woman-porn-videos.html
File Size    : 26 x 50MB
RESOLUTION   : 720 x 480
VIDEO-BITRATE: 1 223 kbps
RUNTIME      : 2h 12m 06s


   .-------------------.
                   |                   |
                   |                   |
                   |  P A R E N T A L  |
                   |                   |
                   |  A D V I S O R Y  |
                   |                   |
                   |                   |
                   | explicit  content |
                   |                   |
                   `-------------------'


GREETZ TO OUR FRIENDS IN GAGBALL-GUSH-iAK AND RESPECT TO THE COMPETITION WHICH MAKES THIS FUN.


Group seeking: couple more sites wanted  .EU [NO fr] .RO .RU AND .LU WANTED - CONTACT US AGAIN,U KNOW WHO YOU ARE

[NO .US EITHER SO PLEASE DONT ASK]


Contact us somehow or call your local pimp



[mediainfo]
Video
ID                                       : 1
Format                                   : AVC
Format/Info                              : Advanced Video Codec
Format profile                           : High@L3.0
Format settings, CABAC                   : Yes
Format settings, ReFrames                : 1 frame
Format settings, GOP                     : M=1, N=12
Codec ID                                 : avc1
Codec ID/Info                            : Advanced Video Coding
Duration                                 : 2h 12mn
Bit rate                                 : 1 223 Kbps
Width                                    : 720 pixels
Height                                   : 480 pixels
Display aspect ratio                     : 3:2
Frame rate mode                          : Variable
Frame rate                               : 29.970 fps
Minimum frame rate                       : 29.382 fps
Maximum frame rate                       : 29.970 fps
Standard                                 : NTSC
Color space                              : YUV
Chroma subsampling                       : 4:2:0
Bit depth                                : 8 bits
Scan type                                : Progressive
Bits/(Pixel*Frame)                       : 0.118
Stream size                              : 1.13 GiB (96%)

Audio
ID                                       : 2
Format                                   : AAC
Format/Info                              : Advanced Audio Codec
Format profile                           : LC
Codec ID                                 : 40
Duration                                 : 2h 12mn
Bit rate mode                            : Constant
Bit rate                                 : 41.3 Kbps
Channel(s)                               : 2 channels
Channel(s)_Original                      : 1 channel
Channel positions                        : Front: C
Sampling rate                            : 24.0 KHz
Compression mode                         : Lossy
Stream size                              : 39.1 MiB (3%)


[/mediainfo]

TRACKERSEEDLEECHDOWNLOADED
udp://9.rarbg.me:2710/announce
udp://11.rarbg.me:80/announce
udp://10.rarbg.me:80/announce
udp://12.rarbg.me:80/announce
udp://9.rarbg.com:2710/announce
udp://open.demonii.com:1337/announce
udp://tracker.publicbt.com:80/announce
udp://tracker.istole.it:80/announce
udp://tracker.openbittorrent.com:80/announce
udp://tracker.istole.it:6969/announce
http://tracker.trackerfix.com/announce
udp://tracker.ccc.de:80/announce
http://tracker.thepiratebay.org/announce
udp://tracker-ccc.de:6969/announce
FILESIZE
RARBG.com.txt31 B
tbp.woman2woman.mp41.17 GB
tbp.woman2woman.nfo1014 B

Login

Account deleting

Are you sure you want to delete your account?

WARNING: This action cannot be undone!!!