Login / Register

KarupsHA.14.07.15.Serena.Torres.Solo.1.XXX.720p.MP4-KTR

Category: XXX
Type: Other
Votes
Good: 0
Bad: 0
GoodBad
0
Seeders
1
Leechers

Added: 2014-07-15

Size: 444.64 MB

Health: 25%

Hash (Base16): 875C0645DFC1D9C9570A20163FDCFD08FB7FB2DA

Hash (Base32): Q5OAMRO7YHM4SVYKEALD7XH5BD5X7MW2

DownloadBookmark
^

Screenshots:


                                                /QST'13

              Ke Trabaje Rita

               Presents:

               KarupsHA.14.07.15.Serena.Torres.Solo.1.XXX.720p.MP4-KTR

                   Genre.......: Adult
                   Files.......: 32
                   Video.......: MP4
                   Date........: 2014-07-15
                   URL.........: http://www.karupsha.com/

               Release Notes:

[mediainfo]
Video
ID                                       : 1
Format                                   : AVC
Format/Info                              : Advanced Video Codec
Format profile                           : Main@L3.1
Format settings, CABAC                   : No
Format settings, ReFrames                : 2 frames
Codec ID                                 : avc1
Codec ID/Info                            : Advanced Video Coding
Duration                                 : 12mn 14s
Bit rate                                 : 4 998 Kbps
Width                                    : 1 280 pixels
Height                                   : 720 pixels
Display aspect ratio                     : 16:9
Frame rate mode                          : Constant
Frame rate                               : 23.976 fps
Standard                                 : NTSC
Color space                              : YUV
Chroma subsampling                       : 4:2:0
Bit depth                                : 8 bits
Scan type                                : Progressive
Bits/(Pixel*Frame)                       : 0.226
Stream size                              : 438 MiB (98%)
Language                                 : English

Audio
ID                                       : 2
Format                                   : AAC
Format/Info                              : Advanced Audio Codec
Format profile                           : LC
Codec ID                                 : 40
Duration                                 : 12mn 14s
Bit rate mode                            : Constant
Bit rate                                 : 72.0 Kbps
Channel(s)                               : 2 channels
Channel positions                        : Front: L R
Sampling rate                            : 44.1 KHz
Compression mode                         : Lossy
Stream size                              : 6.31 MiB (1%)
Language                                 : English


[/mediainfo]

TRACKERSEEDLEECHDOWNLOADED
udp://9.rarbg.me:2710/announce
udp://11.rarbg.me:80/announce
udp://10.rarbg.me:80/announce
udp://12.rarbg.me:80/announce
udp://9.rarbg.com:2710/announce
udp://open.demonii.com:1337/announce
udp://tracker.publicbt.com:80/announce
udp://tracker.istole.it:80/announce
udp://tracker.openbittorrent.com:80/announce
udp://tracker.istole.it:6969/announce
http://tracker.istole.it/announce
http://tracker.trackerfix.com/announce
udp://tracker.ccc.de:80/announce
http://tracker.thepiratebay.org/announce
udp://tracker-ccc.de:6969/announce
FILESIZE
RARBG.com.txt31 B
kha.14.07.15.serena.torres.solo.1.mp4444.64 MB
kha.14.07.15.serena.torres.solo.1.nfo6.81 KB

Login

Account deleting

Are you sure you want to delete your account?

WARNING: This action cannot be undone!!!