Login / Register

FIFA.World.Cup.2014.Final.Germany.vs.Argentina.SWEDiSH.UNCUT.720p.HDTV.x264-PRiNCE[rartv]

Category: Video
Type: TV
Movie Title: A Legal Mind
Cast: Kevin Bray,Michael Smith,John Scott,Anton Cropper,Félix Enríquez Alcalá,Christopher Misiano,Terry McDonough,Jennifer Getzinger,Roger Kumble,Norberto Barba,Dennie Gordon,Tim Matheson,Kate Woods,Adam Davidson,Nicole Kassell,David Platt,Cherie Nowla
Genre: Comedy, Drama
External Links: IMDB
Director: Tim Matheson
Producer: Kevin Bray
Writer: Jon Cowan
Duration: 45
Original run: 2006-05-31
IMDB rating: 4.6 (28 votes)
Summary: On the run from a drug deal gone bad, Mike Ross, a brilliant college-dropout, finds himself a job working with Harvey Specter, one of New York City's best lawyers.
Votes
Good: 0
Bad: 0
GoodBad
0
Seeders
1
Leechers

Added: 2014-07-15

Size: 7.54 GB

Health: 25%

Hash (Base16): E4CEF13F6E35895A6423C8C6746E154A5A4585EE

Hash (Base32): 4THPCP3OGWEVUZBDZDDHI3QVJJNELBPO

DownloadBookmark
DOWNLOAD LOCATIONS
http://rarbg.to/torrent/ksu93x8
http://thepiratebay.se/torrent/10558218/FIFA.World.Cup.2014.Final.Germany.vs.Argentina.SWEDiSH.UNCUT.720
http://bitsnoop.com/fifa-world-cup-2014-final-germany-v-q66080880.html
http://isohunt.to/torrent_details/12096569/FIFA-World-Cup-2014-Final-Germany-vs-Argentina-SWEDiSH-UNCUT-720p-HDTV-x264-PRiNCE-rarbg
http://torrenthound.to/hash/e4cef13f6e35895a6423c8c6746e154a5a4585ee/torrent-info/FIFA.World.Cup.2014.Final.Germany.vs.Argentina.SWEDiSH.UNCUT.720p.HDTV.x264-PRiNCE-rartv
http://www.monova.org/torrent/8277187/FIFAWorldCup2014FinalGermanyvsArgentinaSWEDiSHUNCUT720.html
http://www.torlock.com/torrent/3055789/fifa-world-cup-2014-final-germany-vs-argentina-swedish-uncut-720p-x264-prin.html
http://www.torrents.net/torrent/5225049/FIFA.World.Cup.2014.Final.Germany.vs.Argentina.SWEDiSH.UNCUT.720p.HDTV.x264-PRiNCE[rarbg]/
http://www.limetorrents.cc/FIFA-World-Cup-2014-Final-Germany-vs-Argentina-SWEDiSH-UNCUT-720-torrent-4800737.html
http://fastpiratebay.eu/thepiratebay.se/torrent/10558218/FIFA.World.Cup.2014.Final.Germany.vs.Argentina.SWEDiSH.UNCUT.720
http://www.torrentreactor.net/torrents/25741285/FIFA-World-Cup-2014-Final-Germany-vs-Argentina-SWEDiSH-UNCUT-720p-HDTV-x264-PRiNCE-rarbg
http://www.seedpeer.me/details/8240107/FIFA.World.Cup.2014.Final.Germany.vs.Argentina.SWEDiSH.UNCUT.720.html
http://www.torrentzap.com/torrent/2421880/FIFA+World+Cup+2014+Final+Germany+vs+Argentina+SWEDiSH+UNCUT+720
http://www.torrentdownloads.me/torrent/1658623060/FIFA+World+Cup+2014+Final+Germany+vs+Argentina+SWEDiSH+UNCUT+720p+HDTV+x264-PRiNCE%5Brarbg%5D
http://www.torrentfunk.com/torrent/8918388/fifa-world-cup-2014-final-germany-vs-argentina-swedish-uncut-720p-x264-prin.html
http://torrentproject.se/e4cef13f6e35895a6423c8c6746e154a5a4585ee/FIFA-World-Cup-(2014)-Final-Germany-vs-Argentina-SWEDiSH-UNCUT-720p-HDTV-x264-PRiNCE-rarbg-torrent.html
^

FIFA.World.Cup.2014.Final.Germany.vs.Argentina.SWEDiSH.UNCUT.720p.HDTV.x264-PRiNCE[rartv]

image
[mediainfo]

Video
ID : 1
Format : AVC
Format/Info : Advanced Video Codec
Format profile : High@L4.1
Format settings, CABAC : Yes
Format settings, ReFrames : 5 frames
Codec ID : V_MPEG4/ISO/AVC
Duration : 4h 14mn
Bit rate : 3 583 Kbps
Width : 1 280 pixels
Height : 720 pixels
Display aspect ratio : 16:9
Frame rate mode : Constant
Frame rate : 25.000 fps
Color space : YUV
Chroma subsampling : 4:2:0
Bit depth : 8 bits
Scan type : Progressive
Bits/(Pixel*Frame) : 0.155
Stream size : 6.36 GiB (84%)
Writing library : x264 core 142 r2431 ac76440
Encoding settings : cabac=1 / ref=5 / deblock=1:0:0 / analyse=0x3:0x113 / me=umh / subme=8 / psy=1 / psy_rd=1.00:0.00 / mixed_ref=1 / me_range=16 / chroma_me=1 / trellis=1 / 8x8dct=1 / cqm=0 / deadzone=21,11 / fast_pskip=1 / chroma_qp_offset=-2 / threads=12 / lookahead_threads=2 / sliced_threads=0 / nr=0 / decimate=1 / interlaced=0 / bluray_compat=0 / constrained_intra=0 / bframes=3 / b_pyramid=2 / b_adapt=2 / b_bias=0 / direct=3 / weightb=1 / open_gop=0 / weightp=2 / keyint=250 / keyint_min=25 / scenecut=40 / intra_refresh=0 / rc_lookahead=50 / rc=crf / mbtree=1 / crf=22.0 / qcomp=0.60 / qpmin=0 / qpmax=69 / qpstep=4 / ip_ratio=1.40 / aq=1:1.00
Default : Yes
Forced : No

Audio
ID : 2
Format : AC-3
Format/Info : Audio Coding 3
Mode extension : CM (complete main)
Format settings, Endianness : Big
Codec ID : A_AC3
Duration : 4h 14mn
Bit rate mode : Constant
Bit rate : 576 Kbps
Channel(s) : 6 channels
Channel positions : Front: L C R, Side: L R, LFE
Sampling rate : 48.0 KHz
Bit depth : 16 bits
Compression mode : Lossy
Delay relative to video : 8ms
Stream size : 1.02 GiB (14%)
Language : Swedish
Default : Yes
Forced : No

[/mediainfo]

TRACKERSEEDLEECHDOWNLOADED
udp://tracker.coppersurfer.tk:6969/announce
http://mgtracker.org:2710/announce
udp://mgtracker.org:2710/announce
udp://9.rarbg.me:2710/announce
udp://11.rarbg.me:80/announce
udp://10.rarbg.me:80/announce
udp://12.rarbg.me:80/announce
udp://9.rarbg.com:2710/announce
udp://open.demonii.com:1337/announce
udp://tracker.publicbt.com:80/announce
udp://tracker.istole.it:80/announce
udp://tracker.openbittorrent.com:80/announce
udp://tracker.istole.it:6969/announce
http://tracker.trackerfix.com/announce
http://9.rarbg.com:2710/announce
udp://tracker.ccc.de:80/announce
http://tracker.thepiratebay.org/announce
udp://tracker-ccc.de:6969/announce
FILESIZE
RARBG.com.txt31 B
fifa.world.cup.2014.final.germany.vs.argentina.swedish.uncut.720p.hdtv.x264-prince.mkv7.54 GB
fifa.world.cup.2014.final.germany.vs.argentina.swedish.uncut.720p.hdtv.x264-prince.nfo7.23 KB

Related results

Date Title Size Files Seeds Leechs Category Health
Video(TV) 114.43 MB 4 2014-07-13 1 0 25%
Video(TV) 4.97 GB 5 2014-07-15 0 1 25%
Video(TV) 7.61 GB 6 2014-07-14 0 1 25%
Video(TV) 1.47 GB 4 2014-07-14 0 1 25%
Video(TV) 2.9 GB 3 2014-08-27 0 1 25%

Login

Account deleting

Are you sure you want to delete your account?

WARNING: This action cannot be undone!!!