Login / Register

Paintoy.14.06.25.Elise.Graves.XXX.720p.MP4-YAPG

Category: XXX
Type: Other
Votes
Good: 0
Bad: 0
GoodBad
1
Seeders
1
Leechers

Added: 2014-07-15

Size: 32.01 MB

Health: 25%

Hash (Base16): 7907B4643F2536491A05612840757329DA3F90A1

Hash (Base32): PED3IZB7EU3ESGQFMEUEA5LTFHND7EFB

DownloadBookmark
^

Screenshots:


             . .. YES !!! ANOTHER P0RN GROUP - PROUDLY PRESENTS .. .

          Release Name ...... :  Paintoy.14.06.25.Elise.Graves.XXX.720p.MP4-YAPG
          URL ............... :  Paintoy.com

          Media ............. :  MP4 - Video (XXX-PAYSITE)

          Resolution ........ :  1280x720 - 720p

          Release Date ...... :  14.07.15

          Genre ............. :  BDSM

          Length ............ :   7min. 59sec.

          Size .............. :  3 x 15MB 32 MB

             .  .. R E L E A S E . I N F O R M A T I O N ..  .

   Release notes :

   New Porn for you.

   Enjoy it

     logo and info layout: YAPG     /     info last updated on : 10.10.17

[mediainfo]
Video
ID                                       : 1
Format                                   : AVC
Format/Info                              : Advanced Video Codec
Format profile                           : [email protected]
Format settings, CABAC                   : Yes
Format settings, ReFrames                : 4 frames
Codec ID                                 : avc1
Codec ID/Info                            : Advanced Video Coding
Duration                                 : 7mn 59s
Bit rate                                 : 395 Kbps
Width                                    : 1 280 pixels
Height                                   : 720 pixels
Display aspect ratio                     : 16:9
Frame rate mode                          : Variable
Frame rate                               : 29.970 fps
Minimum frame rate                       : 14.985 fps
Maximum frame rate                       : 29.970 fps
Color space                              : YUV
Chroma subsampling                       : 4:2:0
Bit depth                                : 8 bits
Scan type                                : Progressive
Bits/(Pixel*Frame)                       : 0.014
Stream size                              : 22.6 MiB (71%)
Writing library                          : x264 core 130 r2273 b3065e6
Encoding settings                        : cabac=1 / ref=1 / deblock=1:0:0 / analyse=0x1:0x111 / me=hex / subme=2 / psy=1 / psy_rd=1.00:0.00 / mixed_ref=0 / me_range=16 / chroma_me=1 / trellis=0 / 8x8dct=0 / cqm=0 / deadzone=21,11 / fast_pskip=1 / chroma_qp_offset=0 / threads=12 / lookahead_threads=4 / sliced_threads=0 / nr=0 / decimate=1 / interlaced=0 / bluray_compat=0 / constrained_intra=0 / bframes=3 / b_pyramid=2 / b_adapt=1 / b_bias=0 / direct=1 / weightb=1 / open_gop=0 / weightp=1 / keyint=300 / keyint_min=30 / scenecut=40 / intra_refresh=0 / rc_lookahead=10 / rc=crf / mbtree=1 / crf=30.0 / qcomp=0.60 / qpmin=0 / qpmax=69 / qpstep=4 / vbv_maxrate=20000 / vbv_bufsize=25000 / crf_max=0.0 / nal_hrd=none / ip_ratio=1.40 / aq=1:1.00
Encoded date                             : UTC 2014-06-21 20:44:48
Tagged date                              : UTC 2014-06-21 20:45:40
Color primaries                          : BT.709
Transfer characteristics                 : BT.709
Matrix coefficients                      : BT.709

Audio
ID                                       : 2
Format                                   : AAC
Format/Info                              : Advanced Audio Codec
Format profile                           : LC
Codec ID                                 : 40
Duration                                 : 7mn 59s
Bit rate mode                            : Variable
Bit rate                                 : 160 Kbps
Maximum bit rate                         : 187 Kbps
Channel(s)                               : 2 channels
Channel positions                        : Front: L R
Sampling rate                            : 48.0 KHz
Compression mode                         : Lossy
Stream size                              : 9.14 MiB (29%)
Language                                 : English
Encoded date                             : UTC 2014-06-21 20:44:48
Tagged date                              : UTC 2014-06-21 20:45:39


[/mediainfo]

TRACKERSEEDLEECHDOWNLOADED
udp://9.rarbg.me:2710/announce
udp://11.rarbg.me:80/announce
udp://10.rarbg.me:80/announce
udp://12.rarbg.me:80/announce
udp://9.rarbg.com:2710/announce
udp://open.demonii.com:1337/announce
udp://tracker.publicbt.com:80/announce
udp://tracker.istole.it:80/announce
udp://tracker.openbittorrent.com:80/announce
http://tracker.trackerfix.com/announce
udp://tracker.ccc.de:80/announce
FILESIZE
RARBG.com.txt31 B
p465eggraves.mp432 MB
yp-p140625eg.nfo8.37 KB

Login

Account deleting

Are you sure you want to delete your account?

WARNING: This action cannot be undone!!!