Login / Register
1080p

Death.at.a.Funeral.2007.1080p.BluRay.DTS.x264-HDMaNiAcS

Category: Video
Type: Movies
Movie Title: Death at a Funeral
Detected quality: 1080p
Release date: 2007-03-01
Cast: Rupert Graves,Ewen Bremner,Jane Asher,Angela Curran,Peter Dinklage,Daisy Donovan,Peter Egan,Matthew Macfadyen,Keeley Hawes,Andy Nyman,Alan Tudyk,Kris Marshall,Peter Vaughan,Thomas Wheatley,Jeremy Booth,Kelly Eastwood,Gareth Milne,Brendan O'Hea
Genre: Comedy
External Links: IMDB
Director: Frank Oz
Producers: Sidney Kimmel,Diana Phillips,Andreas Grosch,William Horberg,Share Stallings,Bruce Webb,Josh Kesselman,Alex Lewis,Laurence Malkin,Philip Elway,Bruce Toll
Writer: Dean Craig
Duration: 90
IMDB rating: 7.3 (38,569 votes)
Summary: Daniel is a decent young man, married to Jane, still living at his father's home. When his father dies, it is up to him to organize his funeral. On this painful morning, the suitable grave expression on his face, Daniel is ready to welcome his father's friends and relatives. But preserving the dignity inherent in such circumstances will be a hard task. Particularly with an undertaker who botches his work, the return from the USA of his famous but selfish brother, his cousin's fiancé who has accidentally ingested drugs, the presence a moron who takes advantage of the sad event to win back the heart (or rather the body) of a woman who is about to marry another, of a handicapped old uncle who is also the most unbearable pain in the neck. To cap it all, Daniel notices the presence among the mourners of a mysterious dwarf nobody else seems to know...
Votes
Good: 0
Bad: 0
GoodBad
2
Seeders
0
Leechers

Added: 2014-07-14

Size: 9.73 GB

Health: 100%

Hash (Base16): 3A29ED3F6846C504E45B3E19505A5E754B3AFAA9

Hash (Base32): HIU62P3II3CQJZC3HYMVAWS6OVFTV6VJ

DownloadBookmark
^

Death.at.a.Funeral.2007.1080p.BluRay.DTS.x264-HDMaNiAcS

image

Title: Death at a Funeral (2007)
IMDB Rating: 7.3/10
Genres: Comedy
Actors: Matthew Macfadyen , Keeley Hawes , Andy Nyman , Ewen Bremner , Daisy Donovan , Alan Tudyk , Jane Asher , Kris Marshall , Rupert Graves , Peter Vaughan , Thomas Wheatley , Peter Egan , Peter Dinklage , Brendan O'Hea , Jeremy Booth
Runtime: 90
Year: 2007
Plot:
Daniel is a decent young man| married to Jane| still living at his father's home. When his father dies| it is up to him to organize his funeral. On this painful
morning| the suitable grave expression on his face| Daniel is ready to welcome his father's friends and relatives. But preserving the dignity inherent in such
circumstances will be a hard task. Particularly with an undertaker who botches his work| the return from the USA of his famous but selfish brother| his cousin's
fiancé who has accidentally ingested drugs| the presence a moron who takes advantage of the sad event to win back the heart (or rather the body) of a woman who is
about to marry another| of a handicapped old uncle who is also the most unbearable pain in the neck. To cap it all| Daniel notices the presence among the mourners of
a mysterious dwarf nobody else seems to know... [mediainfo]


Format : Matroska
Format version : Version 4 / Version 2
File size : 9.73 GiB
Duration : 1h 30mn
Overall bit rate : 15.4 Mbps
Encoded date : UTC 2014-07-12 09:04:14
Writing application : mkvmerge v7.0.0 ('Where We Going') 64bit built on Jun 9 2014 15:16:27
Writing library : libebml v1.3.0 + libmatroska v1.4.1
_STATISTICS_WRITING_APP : mkvmerge v7.0.0 ('Where We Going') 64bit built on Jun 9 2014 15:16:27
_STATISTICS_WRITING_DATE_UTC : 2014-07-12 09:04:14
_STATISTICS_TAGS : BPS DURATION NUMBER_OF_FRAMES NUMBER_OF_BYTES
DURATION : 01:22:04.999000000
NUMBER_OF_FRAMES : 1513
NUMBER_OF_BYTES : 41652

Video
ID : 1
Format : AVC
Format/Info : Advanced Video Codec
Format profile : [email protected]
Format settings, CABAC : Yes
Format settings, ReFrames : 4 frames
Codec ID : V_MPEG4/ISO/AVC
Duration : 1h 30mn
Bit rate : 13.9 Mbps
Width : 1 920 pixels
Height : 1 080 pixels
Display aspect ratio : 16:9
Frame rate mode : Constant
Frame rate : 23.976 fps
Color space : YUV
Chroma subsampling : 4:2:0
Bit depth : 8 bits
Scan type : Progressive
Bits/(Pixel*Frame) : 0.279
Stream size : 8.58 GiB (88%)
Title : Death.at.a.Funeral.2007.1080p.BluRay.DTS.x264-HDMaNiAcS
Writing library : x264 core 142 r2431kMod ac76440
Encoding settings : cabac=1 / ref=4 / deblock=1:-3:-3 / analyse=0x3:0x113 / me=tesa / subme=11 / psy=1 / fade_compensate=0.00 / psy_rd=1.00:0.00 / mixed_ref=1 / me_range=32 / chroma_me=1 / trellis=2 / 8x8dct=1 / cqm=0 / deadzone=21,11 / fast_pskip=0 / chroma_qp_offset=-2 / threads=18 / lookahead_threads=3 / sliced_threads=0 / nr=0 / decimate=0 / interlaced=0 / bluray_compat=0 / constrained_intra=0 / fgo=0 / bframes=8 / b_pyramid=2 / b_adapt=2 / b_bias=0 / direct=3 / weightb=1 / open_gop=0 / weightp=2 / keyint=250 / keyint_min=23 / scenecut=40 / intra_refresh=0 / rc_lookahead=40 / rc=2pass / mbtree=0 / bitrate=13850 / ratetol=1.0 / qcomp=0.60 / qpmin=10 / qpmax=69 / qpstep=4 / cplxblur=20.0 / qblur=0.5 / vbv_maxrate=40000 / vbv_bufsize=30000 / nal_hrd=none / filler=0 / ip_ratio=1.35 / pb_ratio=1.10 / aq=3:0.60
Language : English
Default : Yes
Forced : No
_STATISTICS_WRITING_APP : mkvmerge v7.0.0 ('Where We Going') 64bit built on Jun 9 2014 15:16:27
_STATISTICS_WRITING_DATE_UTC : 2014-07-12 09:04:14
_STATISTICS_TAGS : BPS DURATION NUMBER_OF_FRAMES NUMBER_OF_BYTES
DURATION : 01:30:37.933000000
NUMBER_OF_FRAMES : 130380
NUMBER_OF_BYTES : 9410374456

Audio
ID : 2
Format : DTS
Format/Info : Digital Theater Systems
Mode : 16
Format settings, Endianness : Big
Codec ID : A_DTS
Duration : 1h 30mn
Bit rate mode : Constant
Bit rate : 1 509 Kbps
Channel(s) : 6 channels
Channel positions : Front: L C R, Side: L R, LFE
Sampling rate : 48.0 KHz
Bit depth : 24 bits
Compression mode : Lossy
Stream size : 978 MiB (10%)
Language : English
Default : Yes
Forced : No

Text #1
ID : 3
Format : PGS
Muxing mode : zlib
Codec ID : S_HDMV/PGS
Codec ID/Info : The same subtitle format used on BDs/HD-DVDs
Language : English
Default : Yes
Forced : No

Text #2
ID : 4
Format : PGS
Muxing mode : zlib
Codec ID : S_HDMV/PGS
Codec ID/Info : The same subtitle format used on BDs/HD-DVDs
Language : Russian
Default : No
Forced : No

Text #3
ID : 5
Format : UTF-8
Codec ID : S_TEXT/UTF8
Codec ID/Info : UTF-8 Plain Text
Language : Greek
Default : No
Forced : No

Text #4
ID : 6
Format : UTF-8
Codec ID : S_TEXT/UTF8
Codec ID/Info : UTF-8 Plain Text
Language : English
Default : No
Forced : No

Menu #1
00:00:00.000 : en:00:00:00.000
00:06:13.623 : en:00:06:13.623
00:10:01.475 : en:00:10:01.475
00:15:15.873 : en:00:15:15.873
00:21:43.593 : en:00:21:43.593
00:28:35.046 : en:00:28:35.046
00:35:59.282 : en:00:35:59.282
00:45:28.350 : en:00:45:28.350
00:53:48.224 : en:00:53:48.224
01:01:39.070 : en:01:01:39.070
01:08:24.683 : en:01:08:24.683
01:14:35.220 : en:01:14:35.220
01:23:24.833 : en:01:23:24.833
01:25:12.774 : en:01:25:12.774

Menu #2
00:00:00.000 : en:00:00:00.000
00:06:13.623 : en:00:06:13.623
00:10:01.475 : en:00:10:01.475
00:15:15.873 : en:00:15:15.873
00:21:43.593 : en:00:21:43.593
00:28:35.046 : en:00:28:35.046
00:35:59.282 : en:00:35:59.282
00:45:28.350 : en:00:45:28.350
00:53:48.224 : en:00:53:48.224
01:01:39.070 : en:01:01:39.070
01:08:24.683 : en:01:08:24.683
01:14:35.220 : en:01:14:35.220
01:23:24.833 : en:01:23:24.833
01:25:12.774 : en:01:25:12.774


[/mediainfo]

TRACKERSEEDLEECHDOWNLOADED
udp://9.rarbg.me:2710/announce
udp://11.rarbg.me:80/announce
udp://10.rarbg.me:80/announce
udp://12.rarbg.me:80/announce
udp://9.rarbg.com:2710/announce
udp://open.demonii.com:1337/announce
udp://tracker.publicbt.com:80/announce
udp://tracker.istole.it:80/announce
udp://tracker.openbittorrent.com:80/announce
udp://tracker.istole.it:6969/announce
http://tracker.istole.it/announce
http://tracker.trackerfix.com/announce
udp://tracker.ccc.de:80/announce
http://tracker.thepiratebay.org/announce
http://www.eddie4.nl:6969/announce
udp://tracker-ccc.de:6969/announce
FILESIZE
Death.at.a.Funeral.2007.1080p.BluRay.DTS.x264-HDMaNiAcS.mkv9.73 GB
Death.at.a.Funeral.2007.1080p.BluRay.DTS.x264-HDMaNiAcS.nfo6.37 KB
RARBG.com.txt31 B

Login

Account deleting

Are you sure you want to delete your account?

WARNING: This action cannot be undone!!!