Login / Register

Survivor.2014.1080p.BluRay.x264.DTS-RARBG

Category: Video
Type: Movies
Language: English
Subtitles: English
Movie Title: Survivor
Detected quality: 1080p
Release date: 2014-07-21
Cast: Danielle Chuchran,Kevin Sorbo,Andrew Dee Jones,Paul D. Hunt,Nicola Posener,Rocky Myers,James C. Morris,Abigail Mason
Genre: Action, Fantasy, Sci-Fi
External Links: IMDB
Director: John Lyde
Producers: Jasper Jan,Cal Nguyen,Jason Faller,Kynan Griffin,Kevin Carvell,John Lyde,Gil Aglaure,Rizwan Virk,Saad Al-Enezi,Marcus Bruckner,Saad Al-Enezi Rizwan Virk
Writer: John Lyde
Duration: 93
IMDB rating: 3.9 (465 votes)
Summary: During their search for a habitable planet the last living humans crash-land on a barren world, inhabited by bloodthirsty aliens and mysterious post-apocalyptic warriors.
Votes
Good: 0
Bad: 0
GoodBad
0
Seeders
1
Leechers

Added: 2014-07-13

Size: 6.32 GB

Health: 25%

Hash (Base16): 6114C01E7D0B809BF5F7925FA9BE69C147CFD06F

Hash (Base32): MEKMAHT5BOAJX5PXSJP2TPTJYFD47UDP

DownloadBookmark
^

Survivor.2014.1080p.BluRay.x264.DTS-RARBG

image

Title: Survivor (2014)
Genres: Action , Fantasy
Actors: Danielle Chuchran , Kevin Sorbo , Paul D. Hunt , Nicola Posener , James C. Morris , Blake Webb , Deborah Lee Douglas , Abigail Mason , Melanie Stone , Dave Bresnahan , Rocky Myers , Vaughn Odenbrett , Paddy Wallace , Ruby Jones , Braxton McAllister
Runtime: 93
Year: 2014
Plot:
During their search for a habitable planet the last living humans crash-land on a barren world| inhabited by bloodthirsty aliens and mysterious post-apocalyptic
warriors.


Survivor.2014.1080p.BluRay.x264.DTS-RARBG

http://imdb.com/title/tt3297792/

Screens:
image
image
image
image
image
image

Info:

[mediainfo]

Video
ID : 1
Format : AVC
Format/Info : Advanced Video Codec
Format profile : High@L4.1
Format settings, CABAC : Yes
Format settings, ReFrames : 4 frames
Codec ID : V_MPEG4/ISO/AVC
Duration : 1h 33mn
Bit rate : 8 018 Kbps
Width : 1 920 pixels
Height : 1 080 pixels
Display aspect ratio : 16:9
Frame rate mode : Constant
Frame rate : 23.976 fps
Color space : YUV
Chroma subsampling : 4:2:0
Bit depth : 8 bits
Scan type : Progressive
Bits/(Pixel*Frame) : 0.161
Stream size : 5.21 GiB (82%)
Title : Survivor.2014.1080p.BluRay.x264.DTS-RARBG
Writing library : x264 core 142 r2431 ac76440
Default : Yes
Forced : No

Audio
ID : 2
Format : DTS
Format/Info : Digital Theater Systems
Mode : 16
Format settings, Endianness : Big
Codec ID : A_DTS
Duration : 1h 33mn
Bit rate mode : Constant
Bit rate : 1 509 Kbps
Channel(s) : 6 channels
Channel positions : Front: L C R, Side: L R, LFE
Sampling rate : 48.0 KHz
Bit depth : 16 bits
Compression mode : Lossy
Stream size : 1 004 MiB (16%)
Title : Survivor.2014.1080p.BluRay.x264.DTS-RARBG
Language : English
Default : Yes
Forced : No

Text
ID : 3
Format : UTF-8
Codec ID : S_TEXT/UTF8
Codec ID/Info : UTF-8 Plain Text
Language : English
Default : No
Forced : No

Menu
00:00:00.000 : en:00:00:00.000
00:09:38.578 : en:00:09:38.578
00:14:49.388 : en:00:14:49.388
00:23:24.028 : en:00:23:24.028
00:30:58.523 : en:00:30:58.523
00:39:39.711 : en:00:39:39.711
00:45:38.694 : en:00:45:38.694
00:52:54.129 : en:00:52:54.129
00:59:28.148 : en:00:59:28.148
01:08:09.127 : en:01:08:09.127
01:15:44.373 : en:01:15:44.373
01:25:18.405 : en:01:25:18.405


[/mediainfo]

Notes:
Greetz to everyone :)

TRACKERSEEDLEECHDOWNLOADED
http://mgtracker.org:2710/announce
udp://9.rarbg.me:2710/announce
udp://11.rarbg.me:80/announce
udp://10.rarbg.me:80/announce
udp://12.rarbg.me:80/announce
udp://9.rarbg.com:2710/announce
udp://open.demonii.com:1337/announce
udp://tracker.publicbt.com:80/announce
udp://tracker.istole.it:80/announce
udp://tracker.openbittorrent.com:80/announce
udp://tracker.istole.it:6969/announce
http://tracker.istole.it/announce
http://tracker1.wasabii.com.tw:6969/announce
http://tracker.leechers-paradise.org:6969/announce
http://bt.careland.com.cn:6969/announce
http://bttracker.crunchbanglinux.org:6969/announce
http://tracker.trackerfix.com/announce
udp://tracker.ccc.de:80/announce
http://tracker.thepiratebay.org/announce
http://shadowshq.eddie4.nl:6969/announce
http://shadowshq.yi.org:6969/announce
http://www.eddie4.nl:6969/announce
http://retracker.telecom.kz/announce
http://eddie4.nl:6969/announce
http://server2.9sheng.cn:6969/announce
http://121.14.98.151:9090/announce
udp://tracker-ccc.de:6969/announce
FILESIZE
Survivor.2014.1080p.BluRay.x264.DTS-RARBG.mkv6.32 GB
RARBG.com.mp4992.93 KB
Survivor.2014.1080p.BluRay.x264.DTS-RARBG.nfo3.81 KB
RARBG.com.txt31 B

Related results

Date Title Size Files Seeds Leechs Category Health
Video(Movies) 3.37 GB 4 2014-07-12 0 1 25%
Video(Movies) 1.77 GB 4 2014-07-14 0 1 25%
Video(Movies) 1.1 GB 4 2014-07-14 3 0 100%
Video(Movies) 10.1 GB 4 2014-03-22 1 1 25%
Video(Movies) 5.23 GB 4 2014-03-22 2 0 100%

Login

Account deleting

Are you sure you want to delete your account?

WARNING: This action cannot be undone!!!