Login / Register

Survivor.2014.720p.BluRay.x264.DTS-RARBG

Category: Video
Type: Movies
Language: English
Subtitles: English
Movie Title: Survivor
Detected quality: 720p
Release date: 2014-07-21
Cast: Danielle Chuchran,Kevin Sorbo,Andrew Dee Jones,Paul D. Hunt,Nicola Posener,Rocky Myers,James C. Morris,Abigail Mason
Genre: Action, Fantasy, Sci-Fi
External Links: IMDB
Director: John Lyde
Producers: Jasper Jan,Cal Nguyen,Jason Faller,Kynan Griffin,Kevin Carvell,John Lyde,Gil Aglaure,Rizwan Virk,Saad Al-Enezi,Marcus Bruckner,Saad Al-Enezi Rizwan Virk
Writer: John Lyde
Duration: 93
IMDB rating: 3.9 (465 votes)
Summary: During their search for a habitable planet the last living humans crash-land on a barren world, inhabited by bloodthirsty aliens and mysterious post-apocalyptic warriors.
Votes
Good: 0
Bad: 0
GoodBad
0
Seeders
1
Leechers

Added: 2014-07-13

Size: 3.37 GB

Health: 25%

Hash (Base16): 5DE81C925492DE46B4531D1DA8CC758C5DFEE692

Hash (Base32): LXUBZESUSLPENNCTDUO2RTDVRRO75ZUS

DownloadBookmark
^

Survivor.2014.720p.BluRay.x264.DTS-RARBG

image

Title: Survivor (2014)
Genres: Action , Fantasy
Actors: Danielle Chuchran , Kevin Sorbo , Paul D. Hunt , Nicola Posener , James C. Morris , Blake Webb , Deborah Lee Douglas , Abigail Mason , Melanie Stone , Dave Bresnahan , Rocky Myers , Vaughn Odenbrett , Paddy Wallace , Ruby Jones , Braxton McAllister
Runtime: 93
Year: 2014
Plot:
During their search for a habitable planet the last living humans crash-land on a barren world| inhabited by bloodthirsty aliens and mysterious post-apocalyptic
warriors.


Survivor.2014.720p.BluRay.x264.DTS-RARBG

http://imdb.com/title/tt3297792/

Screens:
image
image
image
image
image
image

Info:

[mediainfo]

Video
ID : 1
Format : AVC
Format/Info : Advanced Video Codec
Format profile : [email protected]
Format settings, CABAC : Yes
Format settings, ReFrames : 5 frames
Codec ID : V_MPEG4/ISO/AVC
Duration : 1h 33mn
Bit rate : 3 569 Kbps
Width : 1 280 pixels
Height : 720 pixels
Display aspect ratio : 16:9
Frame rate mode : Constant
Frame rate : 23.976 fps
Color space : YUV
Chroma subsampling : 4:2:0
Bit depth : 8 bits
Scan type : Progressive
Bits/(Pixel*Frame) : 0.162
Stream size : 2.32 GiB (69%)
Title : Survivor.2014.720p.BluRay.x264.DTS-RARBG
Writing library : x264 core 142 r2431 ac76440
Language : English
Default : Yes
Forced : No

Audio
ID : 2
Format : DTS
Format/Info : Digital Theater Systems
Mode : 16
Format settings, Endianness : Big
Codec ID : A_DTS
Duration : 1h 33mn
Bit rate mode : Constant
Bit rate : 1 509 Kbps
Channel(s) : 6 channels
Channel positions : Front: L C R, Side: L R, LFE
Sampling rate : 48.0 KHz
Bit depth : 16 bits
Compression mode : Lossy
Stream size : 1 004 MiB (29%)
Title : Survivor.2014.720p.BluRay.x264.DTS-RARBG
Language : English
Default : Yes
Forced : No

Text
ID : 3
Format : UTF-8
Codec ID : S_TEXT/UTF8
Codec ID/Info : UTF-8 Plain Text
Language : English
Default : No
Forced : No



[/mediainfo]

Notes:
Greetz to everyone :)

TRACKERSEEDLEECHDOWNLOADED
udp://9.rarbg.me:2710/announce
udp://11.rarbg.me:80/announce
udp://10.rarbg.me:80/announce
udp://12.rarbg.me:80/announce
udp://9.rarbg.com:2710/announce
udp://open.demonii.com:1337/announce
udp://tracker.publicbt.com:80/announce
udp://tracker.istole.it:80/announce
udp://tracker.openbittorrent.com:80/announce
udp://tracker.istole.it:6969/announce
http://tracker.istole.it/announce
http://tracker.trackerfix.com/announce
udp://tracker.ccc.de:80/announce
http://tracker.thepiratebay.org/announce
udp://tracker-ccc.de:6969/announce
FILESIZE
Survivor.2014.720p.BluRay.x264.DTS-RARBG.mkv3.37 GB
RARBG.com.mp4992.93 KB
Survivor.2014.720p.BluRay.x264.DTS-RARBG.nfo3.15 KB
RARBG.com.txt31 B

Related results

Date Title Size Files Seeds Leechs Category Health
Video(Movies) 6.32 GB 4 2014-07-12 0 1 25%
Video(Movies) 1.77 GB 4 2014-07-14 0 1 25%
Video(Movies) 1.1 GB 4 2014-07-14 2 3 100%
Video(Movies) 10.1 GB 4 2014-03-22 0 1 25%
Video(Movies) 5.23 GB 4 2014-03-22 1 0 25%

Login

Account deleting

Are you sure you want to delete your account?

WARNING: This action cannot be undone!!!