Login / Register
1080p

Need.for.Speed.2014.BluRay.1080p.DTS.x264-CHD

Category: Video
Type: Movies
Movie Title: The Last Airbender: The Legend of Korra
Detected quality: 1080p
Release date: 2014-03-13
Cast: Joaquim Dos Santos,Ki Hyun Ryu,Ian Graham,Colin Heck,Michael Dante DiMartino,Bryan Konietzko,Joshua Hamilton,Tim Hedrick,Janet Varney,Dee Bradley Baker,Jeff Bennett,David Faustino,P.J. Byrne,J.K. Simmons,Seychelle Gabriel,Logan Wells,Kiernan Shipk
Genre: Animation, Action, Adventure
External Links: IMDB
Director: Colin Heck
Producer: Michael Dante DiMartino
Writer: Michael Dante DiMartino
Duration: 24
IMDB rating: 6.6 (105,468 votes)
Summary: Avatar Korra fights to keep Republic City safe from the evil forces of both the physical and spiritual worlds.
Votes
Good: 0
Bad: 0
GoodBad
0
Seeders
1
Leechers

Added: 2014-07-13

Size: 11.5 GB

Health: 25%

Hash (Base16): DECCCA3B59813973C1EF8218F43C52E85DBF81F3

Hash (Base32): 33GMUO2ZQE4XHQPPQIMPIPCS5BO37APT

DownloadBookmark
^

Need.for.Speed.2014.BluRay.1080p.DTS.x264-CHD

image

Title: Need for Speed (2014)
IMDB Rating: 7.2/10
Genres: Action , Crime , Drama , Thriller
Actors: Aaron Paul , Dominic Cooper , Imogen Poots , Scott Mescudi , Rami Malek , Ramon Rodriguez , Harrison Gilbertson , Dakota Johnson , Stevie Ray Dallimore , Michael Keaton , Alan Pflueger , Brian L. Keaulana , Logan Holladay , Carmela Zumbado , Jalil Jay Lynch
Runtime: 132
Year: 2014
Plot:
Framed by an ex-partner for a murder he did not commit| Tobey Marshall| a financially struggling custom-car builder and street-racer| spends two years in jail
thinking about one moment. Fresh out of prison he reacquires the fastest car his workshop ever built and sold| and seeks to enter a secretive and extremely
high-stakes race known as The DeLeon. His purpose; redemption| recognition from the world of racing and to solve his problems. Yet all this fades in comparison to
his driving reason. Revenge. Above all| revenge. This is a story about love| redemption| revenge and motor oil all swirled together| but above all; It's a story
about fast| fast cars. [mediainfo]


Format : Matroska
Format version : Version 4 / Version 2
File size : 11.5 GiB
Duration : 2h 10mn
Overall bit rate : 12.6 Mbps
Encoded date : UTC 2014-07-12 16:11:38
Writing application : mkvmerge v6.8.0 ('Theme for Great Cities') 64bit built on Mar 2 2014 21:34:26
Writing library : libebml v1.3.0 + libmatroska v1.4.1

Video
ID : 1
Format : AVC
Format/Info : Advanced Video Codec
Format profile : High@L4.1
Format settings, CABAC : Yes
Format settings, ReFrames : 5 frames
Codec ID : V_MPEG4/ISO/AVC
Duration : 2h 10mn
Bit rate : 10.4 Mbps
Width : 1 920 pixels
Height : 804 pixels
Display aspect ratio : 2.40:1
Frame rate mode : Constant
Frame rate : 23.976 fps
Color space : YUV
Chroma subsampling : 4:2:0
Bit depth : 8 bits
Scan type : Progressive
Bits/(Pixel*Frame) : 0.282
Stream size : 9.31 GiB (81%)
Writing library : x264 core 138 r2356 a1d3d17
Encoding settings : cabac=1 / ref=5 / deblock=1:-3:-3 / analyse=0x3:0x113 / me=umh / subme=10 / psy=1 / psy_rd=1.00:0.05 / mixed_ref=1 / me_range=32 / chroma_me=1 / trellis=2 / 8x8dct=1 / cqm=0 / deadzone=21,11 / fast_pskip=0 / chroma_qp_offset=-2 / threads=18 / lookahead_threads=1 / sliced_threads=0 / nr=0 / decimate=1 / interlaced=0 / bluray_compat=0 / constrained_intra=0 / bframes=5 / b_pyramid=2 / b_adapt=2 / b_bias=0 / direct=3 / weightb=1 / open_gop=0 / weightp=2 / keyint=250 / keyint_min=23 / scenecut=40 / intra_refresh=0 / rc=2pass / mbtree=0 / bitrate=10450 / ratetol=1.0 / qcomp=0.70 / qpmin=0 / qpmax=69 / qpstep=4 / cplxblur=20.0 / qblur=0.5 / ip_ratio=1.40 / pb_ratio=1.30 / aq=2:1.00
Language : English
Default : Yes
Forced : No

Audio #1
ID : 2
Format : DTS
Format/Info : Digital Theater Systems
Mode : 16
Format settings, Endianness : Big
Codec ID : A_DTS
Duration : 2h 10mn
Bit rate mode : Constant
Bit rate : 1 509 Kbps
Channel(s) : 6 channels
Channel positions : Front: L C R, Side: L R, LFE
Sampling rate : 48.0 KHz
Bit depth : 24 bits
Compression mode : Lossy
Stream size : 1.38 GiB (12%)
Title : dts-core 1509k eng
Language : English
Default : Yes
Forced : No

Audio #2
ID : 3
Format : AC-3
Format/Info : Audio Coding 3
Mode extension : CM (complete main)
Format settings, Endianness : Big
Codec ID : A_AC3
Duration : 2h 10mn
Bit rate mode : Constant
Bit rate : 640 Kbps
Channel(s) : 6 channels
Channel positions : Front: L C R, Side: L R, LFE
Sampling rate : 48.0 KHz
Bit depth : 16 bits
Compression mode : Lossy
Stream size : 598 MiB (5%)
Title : dd5..1 640k eng
Language : English
Default : No
Forced : No

[/mediainfo]

TRACKERSEEDLEECHDOWNLOADED
udp://9.rarbg.me:2710/announce
udp://11.rarbg.me:80/announce
udp://10.rarbg.me:80/announce
udp://12.rarbg.me:80/announce
udp://9.rarbg.com:2710/announce
udp://open.demonii.com:1337/announce
udp://tracker.publicbt.com:80/announce
udp://tracker.istole.it:80/announce
udp://tracker.openbittorrent.com:80/announce
udp://tracker.istole.it:6969/announce
http://tracker.istole.it/announce
http://tracker.trackerfix.com/announce
http://exodus.desync.com:6969/announce
udp://tracker.ccc.de:80/announce
http://tracker.thepiratebay.org/announce
udp://tracker-ccc.de:6969/announce
FILESIZE
Need.for.Speed.2014.BluRay.1080p.DTS.x264-CHD.mkv11.5 GB
RARBG.com.txt31 B

Related results

Date Title Size Files Seeds Leechs Category Health
Video(Movies) 9.94 GB 5 2014-07-11 1 4 25%
Video(Movies) 5.46 GB 3 2014-07-11 6 2 100%
Video(Movies) 2.64 GB 5 2014-07-11 0 1 25%
Video(Movies) 5.56 GB 6 2014-07-11 0 1 25%
Video(Movies) 10.47 GB 1 2014-07-14 1 0 25%
Video(Movies) 2.57 GB 3 2014-07-18 0 1 25%
Video(Movies) 6.05 GB 13 2014-07-11 0 0 N/A

Login

Account deleting

Are you sure you want to delete your account?

WARNING: This action cannot be undone!!!