Login / Register
Votes
Good: 0
Bad: 0
GoodBad
81
Seeders
1
Leechers

Added: 2015-02-22

Size: 146.5 MB

Health: 100%

Hash (Base16): 5E29404A3054BD0199ED5AEF39A99BC657CE4422

Hash (Base32): LYUUASRQKS6QDGPNLLXTTKM3YZL44RBC

DownloadBookmark
^
image
MAROON 5 - SUGAR

General
Maroon 5 - Sugar
Format : MPEG-4
Format profile : Base Media
Codec ID : isom
File size : 146 MiB
Duration : 5mn 1s
Overall bit rate : 4 077 Kbps
MusicVid name : Sugar
Album : V
Performer : Maroon 5
Genre : Disco/Funk Pop
ContentType : Music Video
Recorded date : 2015
Copyright : Maroon 5
Cover : Yes
Rating : ***
Make : MeRaDil
Artist url :
Release : USA . january 14 . 2015
Part_ID : Sugar

Video
ID : 1
Format : AVC
Format/Info : Advanced Video Codec
Format profile : High@L4.0
Format settings, CABAC : Yes
Format settings, ReFrames : 3 frames
Codec ID : avc1
Codec ID/Info : Advanced Video Coding
Duration : 5mn 1s
Bit rate : 3 815 Kbps
Width : 1 920 pixels
Height : 1 080 pixels
Display aspect ratio : 16:9
Frame rate mode : Variable
Frame rate : 23.976 fps
Minimum frame rate : 23.974 fps
Maximum frame rate : 23.981 fps
Color space : YUV
Chroma subsampling : 4:2:0
Bit depth : 8 bits
Scan type : Progressive
Bits/(Pixel*Frame) : 0.077
Stream size : 137 MiB (94%)

Audio
ID : 2
Format : AAC
Format/Info : Advanced Audio Codec
Format profile : LC
Codec ID : 40
Duration : 5mn 1s
Bit rate mode : Constant
Bit rate : 256 Kbps
Channel(s) : 2 channels
Channel positions : Front: L R
Sampling rate : 44.1 KHz
Compression mode : Lossy
Stream size : 9.20 MiB (6%)

Maroon 5 * V * Promo * Disco * Funk Pop

image

TRACKERSEEDLEECHDOWNLOADED
udp://tracker.coppersurfer.tk:6969/announce81179502
udp://10.rarbg.me:80/announce
udp://9.rarbg.com:2710/announce
udp://open.demonii.com:1337/announce
udp://tracker.publicbt.com:80/announce
udp://tracker.istole.it:80/announce
udp://tracker.openbittorrent.com:80/announce
http://tracker.istole.it/announce
http://tracker.nwps.ws:6969/announce
http://tracker.best-torrents.net:6969/announce
http://bigfoot1942.sektori.org:6969/announce
http://tracker.trackerfix.com/announce
udp://exodus.desync.com:6969/announce
http://exodus.desync.com:6969/announce
http://tracker.publicbt.com/announce
udp://tracker.ccc.de:80/announce
udp://tracker.leechers-paradise.org:6969/announce
http://announce.torrentsmd.com:6969/announce
http://fr33dom.h33t.com:3310/announce
http://tracker.thepiratebay.org/announce
http://tracker.kuaikuai.cn:8080/announce
http://torrent.gresille.org/announce
http://torrent-tracker.ru/announce.php
http://atrack.pow7.com/announce
udp://tracker.token.ro:80/announce
udp://ipv4.tracker.harry.lu:80/announce
udp://tracker.ilibr.org:6969/announce
udp://tracker.zond.org:80/announce
udp://anisaishuu.de:2710/announce
udp://glotorrents.pw:6969/announce
udp://tracker.btzoo.eu:80/announce
http://tracker.winglai.com/announce
http://tracker.windsormetalbattery.com/announce
FILESIZE
Maroon 5 - Sugar.mp4146.5 MB

Related results

Date Title Size Files Seeds Leechs Category Health
Audio(Music) 9 MB 1 2015-02-22 0 1 25%

Login

Account deleting

Are you sure you want to delete your account?

WARNING: This action cannot be undone!!!