Login / Register

Maluma Ft. Jenny La Sexy Voz - Intentalo (Remix) - 1080p

Category: Video
Votes
Good: 0
Bad: 0
GoodBad
53
Seeders
2
Leechers

Added: 2015-03-01

Size: 87.79 MB

Health: 100%

Hash (Base16): 86E8A680F40C18E8FDE284E99F235764FF59CF91

Hash (Base32): Q3UKNAHUBQMOR7PCQTUZ6I2XMT7VTT4R

DownloadBookmark
^
Capturas: http://imgur.com/9xK9aDa


General
Complete name                  : C:UsersEliasVideosvid3MalumaFt.JennyLaSexyVoz-Intentalo(Remix)-musicvideos-hq.net.mp4
Format                         : MPEG-4
Format profile                 : Base Media
Codec ID                       : isom
File size                      : 87.8 MiB
Duration                       : 3mn 47s
Overall bit rate               : 3 232 Kbps
Writing application            : Lavf55.33.100

Video
ID                             : 1
Format                         : AVC
Format/Info                    : Advanced Video Codec
Format profile                 : 
Format settings, CABAC         : Yes
Format settings, ReFrames      : 2 frames
Codec ID                       : avc1
Codec ID/Info                  : Advanced Video Coding
Duration                       : 3mn 47s
Bit rate                       : 3 100 Kbps
Width                          : 1 920 pixels
Height                         : 1 080 pixels
Display aspect ratio           : 16:9
Frame rate mode                : Variable
Frame rate                     : 23.976 fps
Minimum frame rate             : 23.974 fps
Maximum frame rate             : 90 000.000 fps
Color space                    : YUV
Chroma subsampling             : 4:2:0
Bit depth                      : 8 bits
Scan type                      : Progressive
Bits/(Pixel*Frame)             : 0.062
Stream size                    : 84.2 MiB (96%)

Audio
ID                             : 2
Format                         : AAC
Format/Info                    : Advanced Audio Codec
Format profile                 : LC
Codec ID                       : 40
Duration                       : 3mn 47s
Bit rate mode                  : Constant
Bit rate                       : 126 Kbps
Channel(s)                     : 2 channels
Channel positions              : Front: L R
Sampling rate                  : 44.1 KHz
Compression mode               : Lossy
Stream size                    : 3.41 MiB (4%)
TRACKERSEEDLEECHDOWNLOADED
udp://tracker.coppersurfer.tk:6969/announce48279602
udp://open.demonii.com:1337/announce
udp://exodus.desync.com:6969/announce
udp://tracker.leechers-paradise.org:6969/announce
FILESIZE
MalumaFt.JennyLaSexyVoz-Intentalo(Remix)-musicvideos-hq.net.mp487.79 MB

Login

Account deleting

Are you sure you want to delete your account?

WARNING: This action cannot be undone!!!