Login / Register

Pulse - Pink Floyd - Concert - 1994 - DvdRip x264 AC3 - Faith

Category: Video
Language: English
Votes
Good: 0
Bad: 0
GoodBad
67
Seeders
7
Leechers

Added: 2015-06-09

Size: 6.93 GB

Health: 100%

Hash (Base16): F31BEEE2417A2464EDE97C5AC39D974F29C79426

Hash (Base32): 6MN65YSBPISGJ3PJPRNMHHMXJ4U4PFBG

DownloadBookmark
^
Pink Floyd - P.U.L.S.E.

DVD Cover
October 20 1994 at Earls Court, London, England

Film:

Title: P.U.L.S.E.
Genre: Progressive Rock
Concert Footage : Oct. 20 1994
Released on Dvd: July 10 2006
Band: Pink Floyd - David Gilmour, Nick Mason, Richard Wright
Length: 145 min
Screen: Full Screen
Audio : Stereo or 5.1 Surround
Source: DVD - EMI ‎– 0724 3 491436 9 2 (Pal)
IMDB Rating: 9.3

PulseShow5.md.jpg

Personnel:

David Gilmour: guitars, lap steel guitar, talk box, vocals
Nick Mason: drums, gong
Richard Wright: keyboards, vocals

with

Sam Brown: backing vocals
Jon Carin: keyboards, vocals, programming
Claudia Fontaine: backing vocals
Durga McBroom: backing vocals
Dick Parry: saxophones
Guy Pratt: bass, vocals
Tim Renwick: guitars, backing vocals
Gary Wallis: percussion

PulseShow2.md.jpg


Track List:

Disc One:
"Shine On You Crazy Diamond" (Concert version)
"Learning to Fly"
"High Hopes"
"Take It Back"
"Coming Back to Life"
"Sorrow"
"Keep Talking"
"Another Brick in the Wall (Part 2)"
"One of These Days"

Disc Two:
"Speak to Me"
"Breathe"
"On the Run"
"Time"
"The Great Gig in the Sky"
"Money"
"Us and Them"
"Any Colour You Like"
"Brain Damage"
"Eclipse"
"Wish You Were Here"
"Comfortably Numb"
"Run Like Hell"

PulseShow4.md.jpg


General:

Complete name : Pulse - Disk I.m4v
Format : MPEG-4
Format profile : Base Media / Version 2
Codec ID : mp42
File size : 3.50 GB
Duration : 1hr 12min
Overall bit rate : 6876 Kbps
Encoded date : UTC 2015-06-08 20:45:53
Tagged date : UTC 2015-06-08 21:40:49
Writing application : HandBrake 0.9.9


PulseShow3.md.jpg


Video:

ID : 1
Format : AVC
Format/Info : Advanced Video Codec
Format profile : [email protected]
Format settings, CABAC : Yes
Format settings, ReFrames : 5 frames
Codec ID : avc1
Codec ID/Info : Advanced Video Coding
Duration : 1hr 12min
Bit rate : 5913 Kbps
Width : 720 pixels
Height : 576 pixels
Display aspect ratio : 4:3
Original display aspect ratio : 4:3
Frame rate mode : Constant
Frame rate : 25.000 fps
Standard : PAL
Color space : YUV
Chroma subsampling : 4:2:0
Bit depth : 8 bits
Scan type : Progressive
Bits/(Pixel*Frame) : 0.570
Stream size : 3.01 GB (86%)
Writing library : x264 core 130 r2273 b3065e6
Encoding settings : (see nfo file)
Encoded date : UTC 2015-06-08 20:45:53
Tagged date : UTC 2015-06-08 21:40:49
Color primaries : BT.601 PAL
Transfer characteristics : BT.709
Matrix coefficients : BT.601


Audio 1:

ID : 2
Format : AC-3
Format/Info : Audio Coding 3
Mode extension : CM (complete main)
Format settings, Endianness : Big
Codec ID : ac-3
Duration : 1hr 12min
Bit rate mode : Constant
Bit rate : 320 Kbps
Channel(s) : 2 channels
Channel positions : Front: L R
Sampling rate : 48.0 KHz
Bit depth : 16 bits
Compression mode : Lossy
Stream size : 167 MiB (5%)
Language : English


Audio 2:

ID : 3
Format : AC-3
Format/Info : Audio Coding 3
Mode extension : CM (complete main)
Format settings, Endianness : Big
Codec ID : ac-3
Duration : 1h 12mn
Bit rate mode : Constant
Bit rate : 640 Kbps
Channel(s) : 6 channels
Channel positions : Front: L C R, Side: L R, LFE
Sampling rate : 48.0 KHz
Bit depth : 16 bits
Compression mode : Lossy
Stream size : 333 MiB (9%)
Language : English

See .nfo file for Disk II info!

Screen Shots:

PulseGilmoreDvd.md.jpg
Source Dvd (pal)

PulseGilmoreRip.md.jpg
Encoded .m4v

Review:

This landmark DVD features the first ever film of Pink Floyd playing the band's
seminal album, The Dark Side of the Moon, live in concert. The set documents the
1994 Division Bell tour and was filmed at London's Earls Court during a record-
breaking 14-night residency. The two-disc release contains the full concert
performance with rare backstage footage and previously unseen extras making
the collection a must-have for Pink Floyd fans. More...

PulseShow1.md.jpg


More Classic Films and Rare Music at:
If you enjoy this, you should buy it, I did!


PleaseSeed1.png


-- Leave Comment For Re-Seed Request--

5030
TRACKERSEEDLEECHDOWNLOADED
udp://tracker.coppersurfer.tk:6969/announce59721388
udp://tracker.zer0day.to:1337/announce40333
udp://9.rarbg.me:2710/announce
udp://10.rarbg.me:80/announce
udp://9.rarbg.com:2710/announce
udp://open.demonii.com:1337/announce
udp://tracker.publicbt.com:80/announce
udp://tracker.istole.it:80/announce
udp://tracker.openbittorrent.com:80/announce
http://tracker.istole.it/announce
http://tracker.nwps.ws:6969/announce
http://tracker.best-torrents.net:6969/announce
http://bigfoot1942.sektori.org:6969/announce
http://tracker.trackerfix.com/announce
udp://exodus.desync.com:6969/announce
http://exodus.desync.com:6969/announce
udp://tracker.publicbt.com/announce
http://tracker.publicbt.com/announce
udp://tracker.ccc.de:80/announce
http://announce.torrentsmd.com:6969/announce
http://fr33dom.h33t.com:3310/announce
http://tracker.thepiratebay.org/announce
http://torrent.gresille.org/announce
http://torrent-tracker.ru/announce.php
http://tracker.aletorrenty.pl:2710/announce
udp://tracker.token.ro:80/announce
udp://ipv4.tracker.harry.lu:80/announce
udp://tracker.ilibr.org:6969/announce
udp://tracker.zond.org:80/announce
udp://glotorrents.com:6969/announce
udp://glotorrents.pw:6969/announce
udp://tracker.btzoo.eu:80/announce
http://tracker.winglai.com/announce
http://tracker.windsormetalbattery.com/announce
udp://tracker.opentrackr.org:1337/announce
FILESIZE
PulseCover2.jpg 663.13 KB
PulseBack.jpg 61.74 KB
PulseDisk1.jpg 45.05 KB
PulseDisk2.jpg 42.01 KB
PulseCover.jpg 30.04 KB
Pulse - Disk I.m4v 3.5 GB
Pulse - II.m4v 3.43 GB
Disk I Info.nfo 5.19 KB
Disk II Info.nfo 5.19 KB
m4v Files Info.nfo 1.22 KB

Login

Account deleting

Are you sure you want to delete your account?

WARNING: This action cannot be undone!!!