Login / Register
Votes
Good: 0
Bad: 0
GoodBad
1
Seeders
1
Leechers

Added: 2015-09-26

Size: 81.83 MB

Health: 25%

Hash (Base16): 5E4A229DCB7509C5825968BC3588F3F4EB5FDEAC

Hash (Base32): LZFCFHOLOUE4LASZNC6DLCHT6TVV7XVM

DownloadBookmark
^
J. BALVIN - GINZA

 
http://gifyu.com/images/ginza.png
 
https://thepiratebay.vg/user/MeRaDil


MEDIA INFO
General
J. Balvin - Ginza
Format                                   : MPEG-4
Format profile                           : Base Media
Codec ID                                 : isom
File size                                : 81.8 MiB
Duration                                 : 3mn 48s
Overall bit rate                         : 2 998 Kbps
MusicVid name                            : Ginza
Performer                                : J.Balvin
Genre                                    : Reggaeton
ContentType                              : Music Video
Recorded date                            : 2015
Rating                                   : ***
Make                                     : MeRaDil
Release time                             : Columbia - july 21 - 2015

Video
ID                                       : 1
Format                                   : AVC
Format/Info                              : Advanced Video Codec
Format profile                           : 
Format settings, CABAC                   : Yes
Format settings, ReFrames                : 3 frames
Codec ID                                 : avc1
Codec ID/Info                            : Advanced Video Coding
Duration                                 : 3mn 48s
Bit rate                                 : 2 730 Kbps
Width                                    : 1 920 pixels
Height                                   : 1 080 pixels
Display aspect ratio                     : 16:9
Frame rate mode                          : Constant
Frame rate                               : 24.000 fps
Color space                              : YUV
Chroma subsampling                       : 4:2:0
Bit depth                                : 8 bits
Scan type                                : Progressive
Bits/(Pixel*Frame)                       : 0.055
Stream size                              : 74.5 MiB (91%)

Audio
ID                                       : 2
Format                                   : AAC
Format/Info                              : Advanced Audio Codec
Format profile                           : LC
Codec ID                                 : 40
Duration                                 : 3mn 48s
Bit rate mode                            : Constant
Bit rate                                 : 256 Kbps
Channel(s)                               : 2 channels
Channel positions                        : Front: L R
Sampling rate                            : 44.1 KHz
Compression mode                         : Lossy
Stream size                              : 6.99 MiB (9%)

J.Balvin * Latin/Reggaeton * Promo
TRACKERSEEDLEECHDOWNLOADED
udp://tracker.coppersurfer.tk:6969/announce1132362297
udp://9.rarbg.me:2710/announce
udp://9.rarbg.com:2710/announce
udp://open.demonii.com:1337/announce
udp://tracker.publicbt.com:80/announce
udp://tracker.openbittorrent.com:80/announce
http://tracker.tfile.me/announce
http://bigfoot1942.sektori.org:6969/announce
http://tracker.trackerfix.com/announce
udp://exodus.desync.com:6969/announce
http://tracker.publicbt.com/announce
udp://tracker.leechers-paradise.org:6969/announce
udp://tracker.pomf.se:80/announce
udp://p4p.arenabg.com:1337/announce
udp://9.rarbg.to:2710/announce
http://explodie.org:6969/announce
http://tracker.kicks-ass.net/announce
udp://glotorrents.pw:6969/announce
udp://tracker4.piratux.com:6969/announce
http://tracker3.infohash.org/announce
udp://torrent.gresille.org:80/announce
udp://opentrackr.org:1337/announce
FILESIZE
J. Balvin - Ginza.mp481.83 MB

Login

Account deleting

Are you sure you want to delete your account?

WARNING: This action cannot be undone!!!