Login / Register

Cali Y El Dandee Ft. Juan Magan - Por Fin Te Encontre [1080p]

Category: Video
Votes
Good: 0
Bad: 0
GoodBad
92
Seeders
1
Leechers

Added: 2015-11-01

Size: 84.46 MB

Health: 100%

Hash (Base16): 268993B8E83CD4E76DA0E072C0ECCB5D6E780BBE

Hash (Base32): E2EZHOHIHTKOO3NA4BZMB3GLLVXHQC56

DownloadBookmark
^
General

Format                         : MPEG-4
Format profile                 : Base Media
Codec ID                       : isom
File size                      : 84.5 MiB
Duration                       : 4mn 42s
Overall bit rate               : 2 508 Kbps
Writing application            : Lavf55.33.100

Video
ID                             : 1
Format                         : AVC
Format/Info                    : Advanced Video Codec
Format profile                 : [email protected]
Format settings, CABAC         : Yes
Format settings, ReFrames      : 3 frames
Codec ID                       : avc1
Codec ID/Info                  : Advanced Video Coding
Duration                       : 4mn 42s
Bit rate                       : 2 377 Kbps
Width                          : 1 920 pixels
Height                         : 1 080 pixels
Display aspect ratio           : 16:9
Frame rate mode                : Variable
Frame rate                     : 23.976 fps
Minimum frame rate             : 23.974 fps
Maximum frame rate             : 90 000.000 fps
Color space                    : YUV
Chroma subsampling             : 4:2:0
Bit depth                      : 8 bits
Scan type                      : Progressive
Bits/(Pixel*Frame)             : 0.048
Stream size                    : 80.0 MiB (95%)

Audio
ID                             : 2
Format                         : AAC
Format/Info                    : Advanced Audio Codec
Format profile                 : LC
Codec ID                       : 40
Duration                       : 4mn 42s
Bit rate mode                  : Constant
Bit rate                       : 126 Kbps
Channel(s)                     : 2 channels
Channel positions              : Front: L R
Sampling rate                  : 44.1 KHz
Compression mode               : Lossy
Stream size                    : 4.23 MiB (5%)
TRACKERSEEDLEECHDOWNLOADED
udp://tracker.coppersurfer.tk:6969/announce780108565
udp://open.demonii.com:1337/announce
udp://tracker.openbittorrent.com:80/announce
udp://exodus.desync.com:6969/announce
FILESIZE
Cali Y El Dandee Ft. Juan Magan, Sebastian Yatra - Por Fin Te Encontré [BajaVideo.net].mp484.46 MB

Login

Account deleting

Are you sure you want to delete your account?

WARNING: This action cannot be undone!!!