Login / Register

The Twilight Saga Pack Part 1-5 720P BRRIPS XVID AC3-MAJESTiC

Category: Video
Type: Movies
Movie Title: Appleseed Alpha
Cast: Shinji Aramaki,Marianne Krawczyk,Masamune Shirow,Luci Christian,David Matranga,Brina Palencia,Wendel Calvert,Elizabeth Bunch,Adam Gibbs,Chris Hutchinson,Josh Sheltz,Joseph Chou,Joey Goubeaud,Eiichi Kamagata,Shigehito Kawada,John Ledford,Daisuke Naga
Genre: Animation, Action, Sci-Fi
External Links: IMDB
Director: Shinji Aramaki
Producer: John Ledford
Writer: Masamune Shirow
Duration: 90
IMDB rating: 5.2/10
Summary: Based on the comic book by the creator of Ghost in the Shell, a young female soldier Deunan and her cyborg partner Briareos survive through the post World War 3 apocalyptic New York in search of human's future hope, the legendary city of Olympus.
Votes
Good: 0
Bad: 0
GoodBad
0
Seeders
1
Leechers

Added: 2013-10-15

Size: 16.07 GB

Health: 25%

Hash (Base16): FFCEBEC7698227F31CFA3643E79E3E1E78FC3901

Hash (Base32): 77HL5R3JQIT7GHH2GZB6PHR6DZ4PYOIB

DownloadBookmark
^
Twilight.2008.720P.BRRIP.XVID.AC3-MAJESTiC

http://www.imdb.com/title/tt1099212/

Format                                   : AVI
Format/Info                              : Audio Video Interleave
Format profile                           : OpenDML
File size                                : 3.25 GiB
Duration                                 : 2h 1mn
Overall bit rate                         : 3 819 Kbps
Writing application                      : VirtualDubMod 1.5.10.2 (build 2540/release)
Writing library                          : VirtualDubMod build 2540/release

Video
ID                                       : 0
Format                                   : MPEG-4 Visual
Format profile                           : Advanced Simple@L5
Format settings, BVOP                    : 2
Format settings, QPel                    : No
Format settings, GMC                     : No warppoints
Format settings, Matrix                  : Default (H.263)
Muxing mode                              : Packed bitstream
Codec ID                                 : XVID
Codec ID/Hint                            : XviD
Duration                                 : 2h 1mn
Bit rate                                 : 3 361 Kbps
Width                                    : 1 280 pixels
Height                                   : 544 pixels
Display aspect ratio                     : 2.40:1
Frame rate                               : 23.976 fps
Color space                              : YUV
Chroma subsampling                       : 4:2:0
Bit depth                                : 8 bits
Scan type                                : Progressive
Compression mode                         : Lossy
Bits/(Pixel*Frame)                       : 0.201
Stream size                              : 2.86 GiB (88%)
Writing library                          : XviD 1.2.1 (UTC 2008-12-04)

Audio
ID                                       : 1
Format                                   : AC-3
Format/Info                              : Audio Coding 3
Mode extension                           : CM (complete main)
Format settings, Endianness              : Big
Codec ID                                 : 2000
Duration                                 : 2h 1mn
Bit rate mode                            : Constant
Bit rate                                 : 448 Kbps
Channel(s)                               : 6 channels
Channel positions                        : Front: L C R, Side: L R, LFE
Sampling rate                            : 48.0 KHz
Bit depth                                : 16 bits
Compression mode                         : Lossy
Stream size                              : 390 MiB (12%)
Alignment                                : Split accross interleaves
Interleave, duration                     : 42 ms (1.00 video frame)
Interleave, preload duration             : 500 ms

Screens:







The.Twilight.Saga.New.Moon.2009.720P.BRRIP.XVID.AC3-MAJESTiC

http://www.imdb.com/title/tt1259571/

Format                                   : AVI
Format/Info                              : Audio Video Interleave
Format profile                           : OpenDML
File size                                : 3.02 GiB
Duration                                 : 2h 10mn
Overall bit rate                         : 3 315 Kbps
Writing application                      : VirtualDubMod 1.5.10.2 (build 2540/release)
Writing library                          : VirtualDubMod build 2540/release

Video
ID                                       : 0
Format                                   : MPEG-4 Visual
Format profile                           : Advanced Simple@L5
Format settings, BVOP                    : 2
Format settings, QPel                    : No
Format settings, GMC                     : No warppoints
Format settings, Matrix                  : Default (H.263)
Muxing mode                              : Packed bitstream
Codec ID                                 : XVID
Codec ID/Hint                            : XviD
Duration                                 : 2h 10mn
Bit rate                                 : 2 857 Kbps
Width                                    : 1 280 pixels
Height                                   : 544 pixels
Display aspect ratio                     : 2.35:1
Frame rate                               : 23.976 fps
Color space                              : YUV
Chroma subsampling                       : 4:2:0
Bit depth                                : 8 bits
Scan type                                : Progressive
Compression mode                         : Lossy
Bits/(Pixel*Frame)                       : 0.171
Stream size                              : 2.61 GiB (86%)
Writing library                          : XviD 1.2.1 (UTC 2008-12-04)

Audio
ID                                       : 1
Format                                   : AC-3
Format/Info                              : Audio Coding 3
Mode extension                           : CM (complete main)
Format settings, Endianness              : Big
Codec ID                                 : 2000
Duration                                 : 2h 10mn
Bit rate mode                            : Constant
Bit rate                                 : 448 Kbps
Channel(s)                               : 6 channels
Channel positions                        : Front: L C R, Side: L R, LFE
Sampling rate                            : 48.0 KHz
Bit depth                                : 16 bits
Compression mode                         : Lossy
Stream size                              : 419 MiB (14%)
Alignment                                : Split accross interleaves
Interleave, duration                     : 42 ms (1.00 video frame)
Interleave, preload duration             : 500 ms

Screens:







The.Twilight.Saga.Eclipse.2010.BRRIP.XVID.AC3-MAJESTiC

http://www.imdb.com/title/tt1325004/

Format                                   : AVI
Format/Info                              : Audio Video Interleave
Format profile                           : OpenDML
File size                                : 3.03 GiB
Duration                                 : 2h 3mn
Overall bit rate                         : 3 494 Kbps
Writing application                      : VirtualDubMod 1.5.10.2 (build 2540/release)
Writing library                          : VirtualDubMod build 2540/release

Video
ID                                       : 0
Format                                   : MPEG-4 Visual
Format profile                           : Advanced Simple@L5
Format settings, BVOP                    : 2
Format settings, QPel                    : No
Format settings, GMC                     : No warppoints
Format settings, Matrix                  : Default (H.263)
Muxing mode                              : Packed bitstream
Codec ID                                 : XVID
Codec ID/Hint                            : XviD
Duration                                 : 2h 3mn
Bit rate                                 : 3 036 Kbps
Width                                    : 1 280 pixels
Height                                   : 544 pixels
Display aspect ratio                     : 2.35:1
Frame rate                               : 23.976 fps
Color space                              : YUV
Chroma subsampling                       : 4:2:0
Bit depth                                : 8 bits
Scan type                                : Progressive
Compression mode                         : Lossy
Bits/(Pixel*Frame)                       : 0.182
Stream size                              : 2.63 GiB (87%)
Writing library                          : XviD 1.2.1 (UTC 2008-12-04)

Audio
ID                                       : 1
Format                                   : AC-3
Format/Info                              : Audio Coding 3
Mode extension                           : CM (complete main)
Format settings, Endianness              : Big
Codec ID                                 : 2000
Duration                                 : 2h 3mn
Bit rate mode                            : Constant
Bit rate                                 : 448 Kbps
Channel(s)                               : 6 channels
Channel positions                        : Front: L C R, Side: L R, LFE
Sampling rate                            : 48.0 KHz
Bit depth                                : 16 bits
Compression mode                         : Lossy
Stream size                              : 397 MiB (13%)
Alignment                                : Split accross interleaves
Interleave, duration                     : 42 ms (1.00 video frame)
Interleave, preload duration             : 500 ms

Screens:







The.Twilight.Saga.Breaking.Dawn.Part.1.720P.BRRIP.XVID.AC3-MAJESTiC

http://www.imdb.com/title/tt1324999/

Format                                   : AVI
Format/Info                              : Audio Video Interleave
Format profile                           : OpenDML
File size                                : 3.03 GiB
Duration                                 : 1h 57mn
Overall bit rate                         : 3 698 Kbps
Writing application                      : VirtualDubMod 1.5.10.2 (build 2540/release)
Writing library                          : VirtualDubMod build 2540/release

Video
ID                                       : 0
Format                                   : MPEG-4 Visual
Format profile                           : Advanced Simple@L5
Format settings, BVOP                    : 2
Format settings, QPel                    : No
Format settings, GMC                     : No warppoints
Format settings, Matrix                  : Default (H.263)
Muxing mode                              : Packed bitstream
Codec ID                                 : XVID
Codec ID/Hint                            : XviD
Duration                                 : 1h 57mn
Bit rate                                 : 3 240 Kbps
Width                                    : 1 280 pixels
Height                                   : 528 pixels
Display aspect ratio                     : 2.40:1
Frame rate                               : 23.976 fps
Color space                              : YUV
Chroma subsampling                       : 4:2:0
Bit depth                                : 8 bits
Scan type                                : Progressive
Compression mode                         : Lossy
Bits/(Pixel*Frame)                       : 0.200
Stream size                              : 2.65 GiB (88%)
Writing library                          : XviD 1.2.1 (UTC 2008-12-04)

Audio
ID                                       : 1
Format                                   : AC-3
Format/Info                              : Audio Coding 3
Mode extension                           : CM (complete main)
Format settings, Endianness              : Big
Codec ID                                 : 2000
Duration                                 : 1h 57mn
Bit rate mode                            : Constant
Bit rate                                 : 448 Kbps
Channel(s)                               : 6 channels
Channel positions                        : Front: L C R, Side: L R, LFE
Sampling rate                            : 48.0 KHz
Bit depth                                : 16 bits
Compression mode                         : Lossy
Stream size                              : 375 MiB (12%)
Alignment                                : Split accross interleaves
Interleave, duration                     : 42 ms (1.00 video frame)
Interleave, preload duration             : 500 ms

Screens:







The.Twilight.Saga.Breaking.Dawn.Part.2.2012.720p.BRRip.XviD.AC3-MAJESTiC

http://www.imdb.com/title/tt1673434/

Format                                   : AVI
Format/Info                              : Audio Video Interleave
Format profile                           : OpenDML
File size                                : 3.56 GiB
Duration                                 : 1h 55mn
Overall bit rate                         : 4 422 Kbps
Writing application                      : VirtualDubMod 1.5.10.2 (build 2540/release)
Writing library                          : VirtualDubMod build 2540/release

Video
ID                                       : 0
Format                                   : MPEG-4 Visual
Format profile                           : Advanced Simple@L5
Format settings, BVOP                    : 2
Format settings, QPel                    : No
Format settings, GMC                     : No warppoints
Format settings, Matrix                  : Default (H.263)
Muxing mode                              : Packed bitstream
Codec ID                                 : XVID
Codec ID/Hint                            : XviD
Duration                                 : 1h 55mn
Bit rate                                 : 3 772 Kbps
Width                                    : 1 264 pixels
Height                                   : 528 pixels
Display aspect ratio                     : 2.40:1
Frame rate                               : 23.976 fps
Color space                              : YUV
Chroma subsampling                       : 4:2:0
Bit depth                                : 8 bits
Scan type                                : Progressive
Compression mode                         : Lossy
Bits/(Pixel*Frame)                       : 0.236
Stream size                              : 3.04 GiB (85%)
Writing library                          : XviD 1.2.1 (UTC 2008-12-04)

Audio
ID                                       : 1
Format                                   : AC-3
Format/Info                              : Audio Coding 3
Mode extension                           : CM (complete main)
Format settings, Endianness              : Big
Codec ID                                 : 2000
Duration                                 : 1h 55mn
Bit rate mode                            : Constant
Bit rate                                 : 640 Kbps
Channel(s)                               : 6 channels
Channel positions                        : Front: L C R, Side: L R, LFE
Sampling rate                            : 48.0 KHz
Bit depth                                : 16 bits
Compression mode                         : Lossy
Stream size                              : 527 MiB (14%)
Alignment                                : Split accross interleaves
Interleave, duration                     : 42 ms (1.00 video frame)
Interleave, preload duration             : 500 ms

Screens:






TRACKERSEEDLEECHDOWNLOADED
udp://tracker.coppersurfer.tk:6969/announce010
http://mgtracker.org:2710/announce
udp://mgtracker.org:2710/announce
http://tracker.coppersurfer.tk:6969/announce010
udp://9.rarbg.me:2710/announce
udp://11.rarbg.me:80/announce
udp://10.rarbg.me:80/announce
udp://12.rarbg.me:80/announce
udp://9.rarbg.com:2710/announce
udp://open.demonii.com:1337/announce
udp://tracker.publicbt.com:80/announce
udp://tracker.istole.it:80/announce
udp://tracker.openbittorrent.com:80/announce
udp://tracker.istole.it:6969/announce
http://tracker.istole.it/announce
http://tracker.trackerfix.com/announce
udp://tracker.ccc.de:80/announce
http://tracker.thepiratebay.org/announce
http://www.elitezones.ro/announce.php
http://elitezones.ro/announce.php
FILESIZE
RARBG.com.txt31 B
The.Twilight.Saga.Breaking.Dawn.Part.1.720P.BRRIP.XVID.AC3-MAJESTiC/1.png633.16 KB
The.Twilight.Saga.Breaking.Dawn.Part.1.720P.BRRIP.XVID.AC3-MAJESTiC/The.Twilight.Saga.Breaking.Dawn.Part.1.720P.BRRIP.XVID.AC3-MAJESTiC.avi3.03 GB
The.Twilight.Saga.Breaking.Dawn.Part.1.720P.BRRIP.XVID.AC3-MAJESTiC/sample.avi49.04 MB
The.Twilight.Saga.Breaking.Dawn.Part.2.2012.720p.BRRip.XviD.AC3-MAJESTiC/1.png589.35 KB
The.Twilight.Saga.Breaking.Dawn.Part.2.2012.720p.BRRip.XviD.AC3-MAJESTiC/2.png1.11 MB
The.Twilight.Saga.Breaking.Dawn.Part.2.2012.720p.BRRip.XviD.AC3-MAJESTiC/3.png707.62 KB
The.Twilight.Saga.Breaking.Dawn.Part.2.2012.720p.BRRip.XviD.AC3-MAJESTiC/4.png1.04 MB
The.Twilight.Saga.Breaking.Dawn.Part.2.2012.720p.BRRip.XviD.AC3-MAJESTiC/The.Twilight.Saga.Breaking.Dawn.Part.2.2012.720p.BRRip.XviD.AC3-MAJESTiC.avi.avi3.56 GB
The.Twilight.Saga.Breaking.Dawn.Part.2.2012.720p.BRRip.XviD.AC3-MAJESTiC/The.Twilight.Saga.Breaking.Dawn.Part.2.2012.720p.BRRip.XviD.AC3-MAJESTiC.nfo1.63 KB

Login

Account deleting

Are you sure you want to delete your account?

WARNING: This action cannot be undone!!!