Login / Register
Votes
Good: 0
Bad: 0
GoodBad
17
Seeders
0
Leechers

Added: 2016-02-06

Size: 85.78 MB

Health: 100%

Hash (Base16): 0D6C003C4E054DC8C5009C53430EFAAFC4A99C06

Hash (Base32): BVWAAPCOAVG4RRIATRJUGDX2V7CKTHAG

DownloadBookmark
^
SELENA GOMEZ - HANDS TO MYSELF

 
http://gifyu.com/images/SelenaG01.png
 
http://gifyu.com/images/SelenaG.png


General
Selena Gomez - Hands To Myself
Format                                   : MPEG-4
Format profile                           : Base Media
Codec ID                                 : isom
File size                                : 85.8 MiB
Duration                                 : 3mn 47s
Overall bit rate                         : 3 161 Kbps
MusicVid name                            : Hands To Myself
Album                                    : Revival
Performer                                : Selena Gomez
Genre                                    : Dance Pop
ContentType                              : Music Video
Recorded date                            : 2016
Writing application                      : Lavf56.32.100 / MeRaDil
Cover                                    : Yes
aurl                                     : https://www.selenagomez.com/
relt                                     : USA . january 20 . 2016

Video
ID                                       : 1
Format                                   : AVC
Format/Info                              : Advanced Video Codec
Format profile                           : 
Format settings, CABAC                   : Yes
Format settings, ReFrames                : 2 frames
Codec ID                                 : avc1
Codec ID/Info                            : Advanced Video Coding
Duration                                 : 3mn 47s
Bit rate                                 : 2 883 Kbps
Width                                    : 1 920 pixels
Height                                   : 1 080 pixels
Display aspect ratio                     : 16:9
Frame rate mode                          : Variable
Frame rate                               : 23.976 fps
Minimum frame rate                       : 23.974 fps
Maximum frame rate                       : 23.981 fps
Color space                              : YUV
Chroma subsampling                       : 4:2:0
Bit depth                                : 8 bits
Scan type                                : Progressive
Bits/(Pixel*Frame)                       : 0.058
Stream size                              : 78.2 MiB (91%)

Audio
ID                                       : 2
Format                                   : AAC
Format/Info                              : Advanced Audio Codec
Format profile                           : LC
Codec ID                                 : 40
Duration                                 : 3mn 47s
Bit rate mode                            : Constant
Bit rate                                 : 256 Kbps
Channel(s)                               : 2 channels
Channel positions                        : Front: L R
Sampling rate                            : 44.1 KHz
Compression mode                         : Lossy
Stream size                              : 6.95 MiB (8%)
TRACKERSEEDLEECHDOWNLOADED
udp://tracker.coppersurfer.tk:6969/announce17058705
udp://mgtracker.org:2710/announce
udp://9.rarbg.com:2710/announce
udp://open.demonii.com:1337/announce
udp://tracker.publicbt.com:80/announce
udp://tracker.openbittorrent.com:80/announce
http://tracker.trackerfix.com/announce
udp://exodus.desync.com:6969/announce
udp://tracker.leechers-paradise.org:6969/announce
udp://9.rarbg.to:2710/announce
udp://glotorrents.com:6969/announce
udp://glotorrents.pw:6969/announce
udp://opentrackr.org:1337/announce
FILESIZE
Selena Gomez - Hands To Myself.mp485.78 MB

Login

Account deleting

Are you sure you want to delete your account?

WARNING: This action cannot be undone!!!