Login / Register

The Neon Demon 2016 WEB DL x264-FGT

Category: Video
Type: Other
Language: English
Votes
Good: 2
Bad: 0
GoodBad
4911
Seeders
6334
Leechers

Added: 2016-08-31

Size: 1.01 GB

Health: 100%

Hash (Base16): EEA0A705282C23F87D9D05E5BA30E582EE493317

Hash (Base32): 52QKOBJIFQR7Q7M5AXS3UMHFQLXESMYX

DownloadBookmark
^

The Neon Demon 2016 WEB DL x264-FGT

Screenshots

Screenshot #1 *Click Here*

Screenshot #2 *Click Here*

Screenshot #3 *Click Here*

Screenshot #4 *Click Here*

Screenshot #5 *Click Here*


Code:


Video
ID : 0
Format : MPEG-4 Visual
Format profile : [email protected]
Format settings, BVOP : No
Format settings, QPel : No
Format settings, GMC : No warppoints
Format settings, Matrix : Default (H.263)
Codec ID : XVID
Codec ID/Hint : XviD
Duration : 1h 57mn
Bit rate : 4 557 Kbps
Width : 1 280 pixels
Height : 534 pixels
Display aspect ratio : 2.40:1
Frame rate : 23.976 fps
Color space : YUV
Chroma subsampling : 4:2:0
Bit depth : 8 bits
Scan type : Progressive
Compression mode : Lossy
Bits/(Pixel*Frame) : 0.278
Stream size : 3.75 GiB (92%)
Writing library : Lavc57.24.102

Audio
ID : 1
Format : AC-3
Format/Info : Audio Coding 3
Mode extension : CM (complete main)
Format settings, Endianness : Big
Codec ID : 2000
Duration : 1h 57mn
Bit rate mode : Constant
Bit rate : 384 Kbps
Channel(s) : 6 channels
Channel positions : Front: L C R, Side: L R, LFE
Sampling rate : 48.0 KHz
Frame rate : 31.250 fps (1536 spf)
Compression mode : Lossy
Stream size : 323 MiB (8%)
Alignment : Aligned on interleaves
Interleave, duration : 42 ms (1.00 video frame)
Interleave, preload duration : 512 ms

 
TRACKERS
udp://9.rarbg.me:2710/announce
udp://tracker.publicbt.com:80/announce
udp://tracker.openbittorrent.com:80/announce
udp://tracker.coppersurfer.tk:6969/announce
http://tracker.tfile.me/announce
http://bigfoot1942.sektori.org:6969/announce
http://tracker.trackerfix.com/announce
http://explodie.org:6969/announce
http://tracker.publicbt.com/announce
udp://tracker.leechers-paradise.org:6969/announce
udp://eddie4.nl:6969/announce
udp://tracker.pomf.se:80/announce
udp://glotorrents.pw:6969/announce
udp://tracker4.piratux.com:6969/announce
udp://tracker.blackunicorn.xyz:6969/announce
udp://p4p.arenabg.ch:1337/announce
udp://9.rarbg.to:2710/announce
udp://torrent.gresille.org:80/announce
udp://tracker.opentrackr.org:1337/announce
udp://tracker.internetwarriors.net:1337/announce
FILESSIZE
English.srt40.61 KB
RARBG.com.txt31 B
The.Neon.Demon.2016.WEB-DL.x264-FGT.mp41.01 GB
The.Neon.Demon.2016.WEB-DL.x264-FGT.nfo4.05 KB

No related results were found.

Login

Account deleting

Are you sure you want to delete your account?

WARNING: This action cannot be undone!!!