Login / Register

Batman Unlimited Mech vs Mutants 2016 WEB DL x264-FGT

Category: Video
Type: Other
Language: English
Votes
Good: 0
Bad: 0
GoodBad
1
Seeders
0
Leechers

Added: 2016-08-31

Size: 667.24 MB

Health: 25%

Hash (Base16): 9ECB3FF3A8E8FBADDBD5B88F7F2E8EA8F802CEC1

Hash (Base32): T3FT745I5D523W6VXCHX6LUOVD4AFTWB

DownloadBookmark
^

Batman Unlimited Mech vs Mutants 2016 WEB DL x264-FGT

Screenshots

Screenshot #1 *Click Here*

Screenshot #2 *Click Here*

Screenshot #3 *Click Here*

Screenshot #4 *Click Here*

Screenshot #5 *Click Here*


Code:


Video
ID : 0
Format : MPEG-4 Visual
Format profile : [email protected]
Format settings, BVOP : No
Format settings, QPel : No
Format settings, GMC : No warppoints
Format settings, Matrix : Default (H.263)
Codec ID : XVID
Codec ID/Hint : XviD
Duration : 1h 15mn
Bit rate : 4 410 Kbps
Width : 1 280 pixels
Height : 718 pixels
Display aspect ratio : 16:9
Frame rate : 23.976 fps
Color space : YUV
Chroma subsampling : 4:2:0
Bit depth : 8 bits
Scan type : Progressive
Compression mode : Lossy
Bits/(Pixel*Frame) : 0.200
Stream size : 2.32 GiB (92%)
Writing library : Lavc57.24.102

Audio
ID : 1
Format : AC-3
Format/Info : Audio Coding 3
Mode extension : CM (complete main)
Format settings, Endianness : Big
Codec ID : 2000
Duration : 1h 15mn
Bit rate mode : Constant
Bit rate : 384 Kbps
Channel(s) : 6 channels
Channel positions : Front: L C R, Side: L R, LFE
Sampling rate : 48.0 KHz
Frame rate : 31.250 fps (1536 spf)
Compression mode : Lossy
Stream size : 207 MiB (8%)
Alignment : Aligned on interleaves
Interleave, duration : 42 ms (1.00 video frame)
Interleave, preload duration : 512 ms

 
TRACKERSEEDLEECHDOWNLOADED
udp://tracker.coppersurfer.tk:6969/announce100
udp://9.rarbg.me:2710/announce
udp://tracker.publicbt.com:80/announce
udp://tracker.openbittorrent.com:80/announce
http://tracker.tfile.me/announce
http://bigfoot1942.sektori.org:6969/announce
http://tracker.trackerfix.com/announce
http://tracker.publicbt.com/announce
udp://tracker.leechers-paradise.org:6969/announce
udp://tracker.pomf.se:80/announce
udp://p4p.arenabg.ch:1337/announce
udp://9.rarbg.to:2710/announce
http://explodie.org:6969/announce
udp://eddie4.nl:6969/announce
udp://glotorrents.pw:6969/announce
udp://tracker4.piratux.com:6969/announce
udp://tracker.blackunicorn.xyz:6969/announce
udp://torrent.gresille.org:80/announce
udp://tracker.opentrackr.org:1337/announce
udp://tracker.internetwarriors.net:1337/announce
FILESIZE
Batman.Unlimited.Mech.vs.Mutants.2016.WEB-DL.x264-FGT.mp4667.18 MB
Batman.Unlimited.Mech.vs.Mutants.2016.WEB-DL.x264-FGT.nfo3.96 KB
English.srt59.16 KB
RARBG.com.txt31 B

Login

Account deleting

Are you sure you want to delete your account?

WARNING: This action cannot be undone!!!