Login / Register

Todd Sampson's Body Hack - S01E02

Category: Video
Type: Handheld
Language: English
Season: 1
Episode: 2
Votes
Good: 0
Bad: 0
GoodBad
2
Seeders
1
Leechers

Added: 2016-10-11

Size: 364.75 MB

Health: 100%

Hash (Base16): 886C061D965EC03EC56A5FA4DB5E15D9B024A3E3

Hash (Base32): RBWAMHMWL3AD5RLKL6SNWXQV3GYCJI7D

DownloadBookmark
^
Todd Sampson's Body Hack - S01E02

Join Todd Sampson as he tackles some of the biggest challenges of his life using science as his guide. In this episode, Todd joins a traditional African nomadic tribe to live as a hunter-gatherer.

Complete name                            : Todd Sampson's Body Hack - S01E02.mp4
Format                                   : MPEG-4
Format profile                           : Base Media / Version 2
Codec ID                                 : mp42 (mp42/isom/avc1)
File size                                : 365 MiB
Duration                                 : 45 min 47 s
Overall bit rate mode                    : Variable
Overall bit rate                         : 1 114 kb/s


Video
ID                                       : 2
Format                                   : AVC
Format/Info                              : Advanced Video Codec
Format profile                           : 
Format settings, CABAC                   : Yes
Format settings, ReFrames                : 3 frames
Codec ID                                 : avc1
Codec ID/Info                            : Advanced Video Coding
Duration                                 : 45 min 47 s
Bit rate mode                            : Variable
Bit rate                                 : 982 kb/s
Maximum bit rate                         : 1 000 kb/s
Width                                    : 720 pixels
Height                                   : 404 pixels
Display aspect ratio                     : 16:9
Original display aspect ratio            : 16:9
Frame rate mode                          : Constant
Frame rate                               : 25.000 FPS
Standard                                 : PAL
Color space                              : YUV
Chroma subsampling                       : 4:2:0
Bit depth                                : 8 bits
Scan type                                : Progressive
Bits/(Pixel*Frame)                       : 0.135
Stream size                              : 322 MiB (88%)
Writing library                          : x264 core 112
Color range                              : Limited
Color primaries                          : BT.601 PAL
Transfer characteristics                 : BT.470 System B, BT.470 System G
Matrix coefficients                      : BT.601

Audio
ID                                       : 1
Format                                   : AAC
Format/Info                              : Advanced Audio Codec
Format profile                           : LC
Codec ID                                 : 40
Duration                                 : 45 min 47 s
Bit rate mode                            : Variable
Bit rate                                 : 128 kb/s
Maximum bit rate                         : 576 kb/s
Channel(s)                               : 2 channels
Channel positions                        : Front: L R
Sampling rate                            : 48.0 kHz
Frame rate                               : 46.875 FPS (1024 spf)
Compression mode                         : Lossy
Stream size                              : 41.9 MiB (11%)
TRACKERSEEDLEECHDOWNLOADED
udp://tracker.coppersurfer.tk:6969/announce111765
udp://9.rarbg.me:2710/announce
udp://9.rarbg.com:2710/announce
udp://open.demonii.com:1337/announce
udp://tracker.openbittorrent.com:80/announce
http://tracker.tfile.me/announce
http://bigfoot1942.sektori.org:6969/announce
http://tracker.trackerfix.com/announce
udp://exodus.desync.com:6969/announce
udp://tracker.leechers-paradise.org:6969/announce
udp://tracker.pomf.se:80/announce
udp://p4p.arenabg.ch:1337/announce
udp://9.rarbg.to:2710/announce
http://explodie.org:6969/announce
udp://eddie4.nl:6969/announce
udp://glotorrents.pw:6969/announce
udp://tracker4.piratux.com:6969/announce
udp://tracker.blackunicorn.xyz:6969/announce
udp://torrent.gresille.org:80/announce
udp://tracker.opentrackr.org:1337/announce
udp://tracker.internetwarriors.net:1337/announce
udp://zer0day.ch:1337/announce
FILESIZE
Todd Sampson's Body Hack - S01E02.mp4364.75 MB

Login

Account deleting

Are you sure you want to delete your account?

WARNING: This action cannot be undone!!!