Login / Register

The.Private.Life.of.Sherlock.Holmes.1970.1080p.BluRay.x264-SiNNERS

Category: Video
Type: Movies
Movie Title: The Private Life of Sherlock Holmes
Cast: Miklós Rózsa,Christopher Lee,Philip Anthony,Graham Armitage,Charlie Young Atom,Teddy Kiss Atom,Michael Balfour,Kenneth Benda,George Benson,Anne Blake,Colin Blakely,Penny Brahms,Martin Carroll,Robert Cawdron,James Copeland,Ina De La Haye,Michael Elwyn
Genre: Adventure, Comedy, Crime
External Links: IMDB
Director: Billy Wilder
Producers: Billy Wilder,I.A.L. Diamond
Writers: Billy Wilder,I.A.L. Diamond,Arthur Conan Doyle
Duration: 125
Summary: When a bored Holmes eagerly takes the case of Gabrielle Valladon after an attempt on her life, the search for her missing husband leads to Loch Ness and the legendary monster.
Votes
Good: 0
Bad: 0
GoodBad
0
Seeders
1
Leechers

Added: 2014-07-04

Size: 8.75 GB

Health: 25%

Hash (Base16): 97EF6B37372BCA29F14943915AC6C6EC8D21E32C

Hash (Base32): S7XWWNZXFPFCT4KJIOIVVRWG5SGSDYZM

DownloadBookmark
DOWNLOAD LOCATIONS
http://rarbg.to/torrent/8jeabik
http://thepiratebay.se/torrent/10483798/The.Private.Life.of.Sherlock.Holmes.1970.1080p.BluRay.x264-SiNNE
http://bitsnoop.com/the-private-life-of-sherlock-holmes-q65694599.html
http://isohunt.to/torrent_details/11920226/The-Private-Life-of-Sherlock-Holmes-1970-1080p-BluRay-x264-SiNNE
http://torrenthound.to/hash/97ef6b37372bca29f14943915ac6c6ec8d21e32c/torrent-info/The.Private.Life.of.Sherlock.Holmes.1970.1080p.BluRay.x264-SiNNERS
http://www.monova.org/torrent/8222351/ThePrivateLifeofSherlockHolmes19701080pBluRayx264-SiNNE.html
http://www.torrents.net/torrent/5160054/The.Private.Life.of.Sherlock.Holmes.1970.1080p.BluRay.x264-SiNNERS[rarbg]/
http://www.limetorrents.cc/The-Private-Life-of-Sherlock-Holmes-1970-1080p-BluRay-x264-SiNNE-torrent-4755488.html
http://www.yourbittorrent.com/torrent/6148392/the-private-life-of-sherlock-holmes-1970-1080p-bluray-x264-sinnersbg.html
http://www.torrentreactor.net/torrents/24661554/The-Private-Life-of-Sherlock-Holmes-1970-1080p-BluRay-x264-SiNNE
http://www.seedpeer.me/details/8156262/The.Private.Life.of.Sherlock.Holmes.1970.1080p.BluRay.x264-SiNNERS.html
http://www.torrentzap.com/torrent/2414407/The+Private+Life+of+Sherlock+Holmes+1970+1080p+BluRay+x264-SiNNE
http://www.torrentdownloads.me/torrent/1658568770/The+Private+Life+of+Sherlock+Holmes+1970+1080p+BluRay+x264-SiNNERS%5Brarbg%5D
http://www.torrentfunk.com/torrent/8845567/the-private-life-of-sherlock-holmes-1970-1080p-bluray-x264-sinnersbg.html
http://torrentproject.se/97ef6b37372bca29f14943915ac6c6ec8d21e32c/
http://www.torlock.com/torrent/4668248/the-private-life-of-sherlock-holmes-1970-1080p-sinnersrarbg.html
^

The.Private.Life.of.Sherlock.Holmes.1970.1080p.BluRay.x264-SiNNERS

image

Title: The Private Life of Sherlock Holmes (1970)
IMDB Rating: 7.2/10
Genres: Adventure , Comedy , Crime , Mystery , Romance , Thriller
Actors: Robert Stephens , Colin Blakely , Geneviève Page , Christopher Lee , Tamara Toumanova , Clive Revill , Irene Handl , Mollie Maureen , Stanley Holloway , Catherine Lacey , Peter Madden , Michael Balfour , James Copeland , John Garrie , Godfrey James
Runtime: 125
Year: 1970
Plot:
Director Billy Wilder adds a new and intriguing twist to the personality of intrepid detective Sherlock Holmes. One thing hasn't changed however: Holmes'
crime-solving talents. Holmes and Dr. Watson take on the case of a beautiful woman whose husband has vanished. The investigation proves strange indeed| involving six
missing midgets| villainous monks| a Scottish castle| the Loch Ness monster| and covert naval experiments. Can the sleuths make sense of all this and solve the
mystery? [mediainfo]

Video
ID : 1
Format : AVC
Format/Info : Advanced Video Codec
Format profile : High@L4.1
Format settings, CABAC : Yes
Format settings, ReFrames : 5 frames
Codec ID : V_MPEG4/ISO/AVC
Duration : 2h 5mn
Bit rate : 8 469 Kbps
Width : 1 920 pixels
Height : 832 pixels
Display aspect ratio : 2.35:1
Frame rate mode : Constant
Frame rate : 23.976 fps
Color space : YUV
Chroma subsampling : 4:2:0
Bit depth : 8 bits
Scan type : Progressive
Bits/(Pixel*Frame) : 0.221
Stream size : 7.25 GiB (83%)
Writing library : x264 core 142 r2431 ac76440
Encoding settings : cabac=1 / ref=5 / deblock=1:0:0 / analyse=0x3:0x113 / me=umh / subme=8 / psy=1 / psy_rd=1.00:0.00 / mixed_ref=1 / me_range=16 / chroma_me=1 / trellis=1 / 8x8dct=1 / cqm=0 / deadzone=21,11 / fast_pskip=0 / chroma_qp_offset=-2 / threads=18 / lookahead_threads=3 / sliced_threads=0 / nr=0 / decimate=1 / interlaced=0 / bluray_compat=0 / constrained_intra=0 / bframes=3 / b_pyramid=2 / b_adapt=1 / b_bias=0 / direct=1 / weightb=1 / open_gop=0 / weightp=2 / keyint=250 / keyint_min=23 / scenecut=40 / intra_refresh=0 / rc_lookahead=40 / rc=2pass / mbtree=1 / bitrate=8469 / ratetol=1.0 / qcomp=0.60 / qpmin=0 / qpmax=69 / qpstep=4 / cplxblur=20.0 / qblur=0.5 / ip_ratio=1.40 / aq=1:1.00
Language : English
Default : Yes
Forced : No

Audio
ID : 2
Format : DTS
Format/Info : Digital Theater Systems
Mode : 16
Format settings, Endianness : Big
Codec ID : A_DTS
Duration : 2h 5mn
Bit rate mode : Constant
Bit rate : 1 509 Kbps
Channel(s) : 2 channels
Channel positions : Front: L R
Sampling rate : 48.0 KHz
Bit depth : 24 bits
Compression mode : Lossy
Stream size : 1.32 GiB (15%)
Title : DTS 2.0
Language : English
Default : Yes
Forced : No

Text
ID : 3
Format : UTF-8
Codec ID : S_TEXT/UTF8
Codec ID/Info : UTF-8 Plain Text
Language : English
Default : No
Forced : No

Menu
00:00:00.000 : en:00:00:00.000
00:17:06.609 : en:00:17:06.609
00:33:31.092 : en:00:33:31.092
00:52:07.416 : en:00:52:07.416
01:08:26.019 : en:01:08:26.019
01:24:21.098 : en:01:24:21.098
01:39:13.197 : en:01:39:13.197
01:51:12.749 : en:01:51:12.749

[/mediainfo]

TRACKERSEEDLEECHDOWNLOADED
udp://tracker.coppersurfer.tk:6969/announce015
udp://9.rarbg.me:2710/announce
udp://11.rarbg.me:80/announce
udp://10.rarbg.me:80/announce
udp://12.rarbg.me:80/announce
udp://9.rarbg.com:2710/announce
udp://open.demonii.com:1337/announce
udp://tracker.publicbt.com:80/announce
udp://tracker.istole.it:80/announce
udp://tracker.openbittorrent.com:80/announce
udp://tracker.istole.it:6969/announce
http://tracker.istole.it/announce
http://tracker.trackerfix.com/announce
udp://tracker.ccc.de:80/announce
http://tracker.thepiratebay.org/announce
http://torrent.gresille.org/announce
udp://tracker-ccc.de:6969/announce
http://www.les-renseignements-genereux.org:80/announce
FILESIZE
RARBG.com.txt31 B
the.private.life.of.sherlock.holmes.1970.1080p.bluray.x264-sinners.mkv8.75 GB
the.private.life.of.sherlock.holmes.1970.1080p.bluray.x264-sinners.nfo17.91 KB

Related results

Date Title Size Files Seeds Leechs Category Health
Video(Movies) 5.51 GB 4 2014-07-02 0 3 25%
Video(Movies) 5.47 GB 4 2014-07-02 0 1 25%
Video(Movies) 5.51 GB 6 2014-07-03 0 1 25%

Login

Account deleting

Are you sure you want to delete your account?

WARNING: This action cannot be undone!!!