Login / Register

Blacked.Perfect.Blonde.Girl.Squirts.On.Big.Black.Cock.Lacey.Johnson.mp4

Category: XXX
Type: Other
Votes
Good: 0
Bad: 0
GoodBad
1
Seeders
6
Leechers

Added: 2014-06-18

Size: 1.01 GB

Health: 25%

Hash (Base16): 133CBA29A16AFF8C6EE3B5F5A0016B0C4C01D85D

Hash (Base32): CM6LUKNBNL7YY3XDWX22AALLBRGADWC5

DownloadBookmark
^

General
Complete name                               /Blacked.Perfect.Blonde.Girl.Squirts.On.Big.Black.Cock.Lacey.Johnson.720p.mp4
Format                                   : MPEG-4
Format profile                           : Base Media
Codec ID                                 : isom
File size                                : 1.01 GiB
Duration                                 : 36mn 52s
Overall bit rate mode                    : Variable
Overall bit rate                         : 3 925 Kbps
Encoded date                             : UTC 2014-05-14 16:11:39
Tagged date                              : UTC 2014-05-14 16:11:39

Video
ID                                       : 1
Format                                   : AVC
Format/Info                              : Advanced Video Codec
Format profile                           : Main@L4.1
Format settings, CABAC                   : Yes
Format settings, ReFrames                : 8 frames
Codec ID                                 : avc1
Codec ID/Info                            : Advanced Video Coding
Duration                                 : 36mn 52s
Bit rate                                 : 3 795 Kbps
Maximum bit rate                         : 6 978 Kbps
Width                                    : 1 280 pixels
Height                                   : 720 pixels
Display aspect ratio                     : 16:9
Frame rate mode                          : Constant
Frame rate                               : 29.970 fps
Color space                              : YUV
Chroma subsampling                       : 4:2:0
Bit depth                                : 8 bits
Scan type                                : Progressive
Bits/(Pixel*Frame)                       : 0.137
Stream size                              : 1 001 MiB (97%)
Writing library                          : Zencoder Video Encoding System
Encoded date                             : UTC 2014-05-14 15:42:11
Tagged date                              : UTC 2014-05-14 16:11:41

Audio
ID                                       : 2
Format                                   : AAC
Format/Info                              : Advanced Audio Codec
Format profile                           : LC
Codec ID                                 : 40
Duration                                 : 36mn 52s
Bit rate mode                            : Variable
Bit rate                                 : 128 Kbps
Maximum bit rate                         : 148 Kbps
Channel(s)                               : 2 channels
Channel positions                        : Front: L R
Sampling rate                            : 48.0 KHz
Compression mode                         : Lossy
Stream size                              : 33.7 MiB (3%)
Encoded date                             : UTC 2014-05-14 16:11:40
Tagged date                              : UTC 2014-05-14 16:11:41

TRACKERSEEDLEECHDOWNLOADED
udp://9.rarbg.me:2710/announce
udp://11.rarbg.me:80/announce
udp://10.rarbg.me:80/announce
udp://12.rarbg.me:80/announce
udp://9.rarbg.com:2710/announce
udp://open.demonii.com:1337/announce
udp://tracker.publicbt.com:80/announce
udp://tracker.istole.it:80/announce
udp://tracker.openbittorrent.com:80/announce
http://tracker.trackerfix.com/announce
udp://tracker.ccc.de:80/announce
FILESIZE
Blacked.Perfect.Blonde.Girl.Squirts.On.Big.Black.Cock.Lacey.Johnson.720p.mp41.01 GB
RARBG.com.txt31 B
poster.jpg21.82 KB
screens.jpg266.77 KB

Login

Account deleting

Are you sure you want to delete your account?

WARNING: This action cannot be undone!!!