Login / Register

Blacked.Lacey.Johnson.mp4.16.june.2014

Category: XXX
Type: Other
Votes
Good: 0
Bad: 0
GoodBad
0
Seeders
1
Leechers

Added: 2014-06-18

Size: 520.66 MB

Health: 25%

Hash (Base16): 7DD62A0CDCCC95BBD063FE1F6E6C70E0E19CAEC4

Hash (Base32): PXLCUDG4ZSK3XUDD7YPW43DQ4DQZZLWE

DownloadBookmark
^

General
Complete name                               /BLACKED.LACEY.JOHNSON.480P.mp4
Format                                   : MPEG-4
Format profile                           : Base Media
Codec ID                                 : isom
File size                                : 520 MiB
Duration                                 : 36mn 52s
Overall bit rate mode                    : Variable
Overall bit rate                         : 1 973 Kbps
Encoded date                             : UTC 2014-05-14 16:06:07
Tagged date                              : UTC 2014-05-14 16:06:07

Video
ID                                       : 1
Format                                   : AVC
Format/Info                              : Advanced Video Codec
Format profile                           : Main@L4.1
Format settings, CABAC                   : Yes
Format settings, ReFrames                : 8 frames
Codec ID                                 : avc1
Codec ID/Info                            : Advanced Video Coding
Duration                                 : 36mn 52s
Bit rate                                 : 1 907 Kbps
Maximum bit rate                         : 3 690 Kbps
Width                                    : 854 pixels
Height                                   : 480 pixels
Display aspect ratio                     : 16:9
Frame rate mode                          : Constant
Frame rate                               : 29.970 fps
Color space                              : YUV
Chroma subsampling                       : 4:2:0
Bit depth                                : 8 bits
Scan type                                : Progressive
Bits/(Pixel*Frame)                       : 0.155
Stream size                              : 503 MiB (97%)
Writing library                          : Zencoder Video Encoding System
Encoded date                             : UTC 2014-05-14 15:50:11
Tagged date                              : UTC 2014-05-14 16:06:08

Audio
ID                                       : 2
Format                                   : AAC
Format/Info                              : Advanced Audio Codec
Format profile                           : LC
Codec ID                                 : 40
Duration                                 : 36mn 52s
Bit rate mode                            : Variable
Bit rate                                 : 64.0 Kbps
Maximum bit rate                         : 83.2 Kbps
Channel(s)                               : 2 channels
Channel positions                        : Front: L R
Sampling rate                            : 48.0 KHz
Compression mode                         : Lossy
Stream size                              : 16.9 MiB (3%)
Encoded date                             : UTC 2014-05-14 16:06:08
Tagged date                              : UTC 2014-05-14 16:06:08

TRACKERSEEDLEECHDOWNLOADED
http://mgtracker.org:2710/announce
udp://9.rarbg.me:2710/announce
udp://11.rarbg.me:80/announce
udp://10.rarbg.me:80/announce
udp://12.rarbg.me:80/announce
udp://9.rarbg.com:2710/announce
udp://open.demonii.com:1337/announce
udp://tracker.publicbt.com:80/announce
udp://tracker.istole.it:80/announce
udp://tracker.openbittorrent.com:80/announce
http://tracker.istole.it/announce
http://tracker.trackerfix.com/announce
udp://tracker.ccc.de:80/announce
FILESIZE
BLACKED.LACEY.JOHNSON.480P.mp4520.48 MB
RARBG.com.txt31 B
poster.jpg30.44 KB
screens.jpg151.69 KB

Login

Account deleting

Are you sure you want to delete your account?

WARNING: This action cannot be undone!!!